<?xml version="1.0" standalone="no"?>
<!DOCTYPE svg PUBLIC "-//W3C//DTD SVG 1.1//EN" "http://www.w3.org/Graphics/SVG/1.1/DTD/svg11.dtd" >
<svg xmlns="http://www.w3.org/2000/svg" xmlns:xlink="http://www.w3.org/1999/xlink" version="1.1">
<metadata>
Created by FontForge 20170731 at Wed Nov 17 17:50:37 2021
 By Aleksey,,,
Copyright (c) 2018 by Timo Gaessner. All rights reserved.
</metadata>
<defs>
<font id="Maison-Medium" horiz-adv-x="1269" >
  <font-face 
    font-family="Maison Medium"
    font-weight="500"
    font-stretch="normal"
    units-per-em="2048"
    panose-1="2 11 6 4 3 0 0 0 0 4"
    ascent="1546"
    descent="-502"
    x-height="1085"
    cap-height="1434"
    bbox="-1147 -637 4538 2138"
    underline-thickness="194"
    underline-position="-440"
    unicode-range="U+000D-FEFF"
  />
<missing-glyph horiz-adv-x="1404" 
d="M102 -10v866q0 127 45.5 238t125 190t190.5 124.5t237 45.5q128 0 240 -45.5t191.5 -124.5t125.5 -190t46 -238v-866h-58l-133 133l-139 -133l-129 133l-146 -133l-141 133l-129 -133l-137 133l-135 -133h-54zM307 614l129 129l131 -129l29 29l-131 129l131 131l-29 29
l-131 -131l-129 131l-28 -29l129 -131l-129 -129zM840 614l129 129l131 -129l28 29l-131 129l131 131l-28 29l-131 -131l-129 131l-29 -29l129 -131l-129 -129z" />
    <glyph glyph-name="fi" unicode="fi" horiz-adv-x="1267" 
d="M1124 1085v-1085h-204v897h-453v-897h-205v897h-252v188h252v125q0 124 80 200.5t213 76.5q102 0 240 -64l-70 -170q-98 45 -160 45q-47 0 -72.5 -25.5t-25.5 -72.5v-115h657zM899 1473h244v-244h-244v244z" />
    <glyph glyph-name="fl" unicode="fl" horiz-adv-x="1267" 
d="M920 1434h204v-1434h-204v897h-453v-897h-205v897h-252v188h252v125q0 124 80 200.5t213 76.5q102 0 240 -64l-70 -170q-98 45 -160 45q-47 0 -72.5 -25.5t-25.5 -72.5v-115h453v349z" />
    <glyph glyph-name="W_W_W" unicode="WWW" horiz-adv-x="4620" 
d="M4329 1434h209l-286 -1434h-226l-352 1059l-352 -1059h-205l-352 1059l-352 -1059h-205l-353 1059l-352 -1059h-205l-352 1059l-352 -1059h-225l-287 1434h209l219 -1063l352 1063h168l371 -1119l371 1119h167l371 -1119l371 1119h168l370 -1119l371 1119h168l352 -1063z
" />
    <glyph glyph-name="f_f_i" unicode="ffi" horiz-adv-x="1966" 
d="M1823 1085v-1085h-205v897h-453v-897h-204v897h-494v-897h-205v897h-252v188h252v125q0 124 80 200.5t213 76.5q135 0 293 -94l-86 -162q-70 38 -113 52.5t-84 14.5q-47 0 -72.5 -25.5t-25.5 -72.5v-115h494v125q0 124 79.5 200.5t212.5 76.5q102 0 240 -64l-70 -170
q-98 45 -159 45q-47 0 -73 -25.5t-26 -72.5v-115h658zM1597 1473h244v-244h-244v244z" />
    <glyph glyph-name="f_f_l" unicode="ffl" horiz-adv-x="1966" 
d="M1618 1434h205v-1434h-205v897h-453v-897h-204v897h-494v-897h-205v897h-252v188h252v125q0 124 80 200.5t213 76.5q135 0 293 -94l-86 -162q-70 38 -113 52.5t-84 14.5q-47 0 -72.5 -25.5t-25.5 -72.5v-115h494v125q0 124 79.5 200.5t212.5 76.5q102 0 240 -64l-70 -170
q-98 45 -159 45q-47 0 -73 -25.5t-26 -72.5v-115h453v349z" />
    <glyph glyph-name="w_w_w" unicode="www" horiz-adv-x="3631" 
d="M3420 1085h191l-277 -1085h-229l-246 778l-244 -778h-207l-245 778l-244 -778h-207l-246 778l-243 -778h-207l-246 778l-244 -778h-229l-277 1085h189l213 -839l264 839h170l262 -839l264 839h170l263 -839l264 839h170l262 -839l264 839h170l262 -839z" />
    <glyph glyph-name=".notdef" horiz-adv-x="1404" 
d="M102 -10v866q0 127 45.5 238t125 190t190.5 124.5t237 45.5q128 0 240 -45.5t191.5 -124.5t125.5 -190t46 -238v-866h-58l-133 133l-139 -133l-129 133l-146 -133l-141 133l-129 -133l-137 133l-135 -133h-54zM307 614l129 129l131 -129l29 29l-131 129l131 131l-29 29
l-131 -131l-129 131l-28 -29l129 -131l-129 -129zM840 614l129 129l131 -129l28 29l-131 129l131 131l-28 29l-131 -131l-129 131l-29 -29l129 -131l-129 -129z" />
    <glyph glyph-name=".null" horiz-adv-x="0" 
 />
    <glyph glyph-name="nonmarkingreturn" horiz-adv-x="682" 
 />
    <glyph glyph-name="CR" unicode="&#xd;" horiz-adv-x="716" 
 />
    <glyph glyph-name="space" unicode=" " horiz-adv-x="552" 
 />
    <glyph glyph-name="exclam" unicode="!" horiz-adv-x="671" 
d="M242 420v1014h215v-1014h-215zM205 0v256h262v-256h-262z" />
    <glyph glyph-name="quotedbl" unicode="&#x22;" horiz-adv-x="827" 
d="M143 938l-20 496h215l-21 -496h-174zM510 938l-21 496h216l-21 -496h-174z" />
    <glyph glyph-name="numbersign" unicode="#" horiz-adv-x="1335" 
d="M1212 881h-223l-20 -328h211v-168h-224l-26 -385h-182l26 385h-258l-27 -385h-182l27 385h-211v168h223l21 328h-211v168h223l27 385h182l-27 -385h258l27 385h182l-27 -385h211v-168zM786 553l21 328h-258l-21 -328h258z" />
    <glyph glyph-name="dollar" unicode="$" horiz-adv-x="1300" 
d="M1178 406q3 -177 -103 -291t-295 -140v-231h-215v233q-190 29 -312 158.5t-151 333.5l211 33q22 -157 115.5 -245.5t245.5 -88.5q141 0 216 59.5t75 178.5q0 54 -27 94.5t-72.5 66.5t-104.5 46.5t-124.5 39t-130.5 39.5t-124 52t-104.5 71.5t-72.5 103.5t-27 144
q0 159 101.5 265t265.5 130v221h215v-229q149 -37 254.5 -148t132.5 -266l-211 -39q-22 120 -106.5 194.5t-198.5 74.5q-105 0 -171.5 -55t-66.5 -148q0 -48 26.5 -84t71.5 -59.5t103.5 -43t123 -38.5t129.5 -40.5t124 -55t104.5 -76.5t73.5 -109.5t29 -150.5z" />
    <glyph glyph-name="percent" unicode="%" horiz-adv-x="1943" 
d="M1266 1511l168 -73l-764 -1547l-168 70zM459 555q-163 0 -249.5 116t-86.5 333t86.5 332.5t249.5 115.5q160 0 247 -116t87 -332t-87 -332.5t-247 -116.5zM459 729q74 0 109.5 66t35.5 209t-35.5 208.5t-109.5 65.5q-77 0 -112.5 -66t-35.5 -208q0 -144 35.5 -209.5
t112.5 -65.5zM1487 -18q-161 0 -247.5 115.5t-86.5 332.5t86.5 333t247.5 116t247.5 -116t86.5 -333t-86.5 -332.5t-247.5 -115.5zM1487 156q76 0 111.5 65.5t35.5 208.5q0 144 -35.5 209.5t-111.5 65.5t-112 -66t-36 -209t36 -208.5t112 -65.5z" />
    <glyph glyph-name="ampersand" unicode="&#x26;" horiz-adv-x="1331" 
d="M1280 322l-72 -170q-137 53 -170 69q-79 -130 -193.5 -191t-273.5 -61q-208 0 -338.5 107t-130.5 286q0 228 217 379q-108 167 -108 344q0 168 107 273.5t278 105.5q166 0 272.5 -95.5t108.5 -244.5q2 -114 -79.5 -206t-295.5 -218q125 -116 332 -225q49 146 76 316
l194 -35q-39 -221 -92 -365q43 -20 168 -69zM596 1290q-89 0 -143.5 -56.5t-53.5 -148.5q3 -126 82 -245q174 100 240.5 160t66.5 126q0 72 -53.5 118t-138.5 46zM571 152q187 0 291 153q-264 138 -424 295q-139 -110 -139 -238q0 -101 73.5 -155.5t198.5 -54.5z" />
    <glyph glyph-name="quotesingle" unicode="'" horiz-adv-x="460" 
d="M143 938l-20 496h215l-21 -496h-174z" />
    <glyph glyph-name="parenleft" unicode="(" horiz-adv-x="694" 
d="M510 -471q-186 214 -286.5 482.5t-100.5 551.5t102 553t291 490l158 -121q-159 -187 -247.5 -430t-88.5 -492q0 -246 87.5 -486t244.5 -425z" />
    <glyph glyph-name="parenright" unicode=")" horiz-adv-x="694" 
d="M184 -471l-159 123q157 184 244 424.5t87 486.5q0 249 -88.5 492t-247.5 430l158 121q189 -220 291 -490t102 -553t-100.5 -551.5t-286.5 -482.5z" />
    <glyph glyph-name="asterisk" unicode="*" horiz-adv-x="1114" 
d="M379 608l-146 107l183 246l-293 92l55 172l291 -99l-2 308h180l-2 -308l291 99l55 -172l-293 -92l183 -246l-146 -107l-178 250z" />
    <glyph glyph-name="plus" unicode="+" 
d="M1167 797v-197h-424v-438h-215v438h-426v197h426v428h215v-428h424z" />
    <glyph glyph-name="comma" unicode="," horiz-adv-x="561" 
d="M133 -254v137q56 10 77 35.5t21 81.5h-108v291h315v-246q0 -131 -81 -209t-224 -90z" />
    <glyph glyph-name="hyphen" unicode="-" horiz-adv-x="880" 
d="M123 528v199h635v-199h-635z" />
    <glyph glyph-name="period" unicode="." horiz-adv-x="536" 
d="M123 0v285h291v-285h-291z" />
    <glyph glyph-name="slash" unicode="/" horiz-adv-x="1187" 
d="M877 1516l188 -84l-754 -1543l-188 78z" />
    <glyph glyph-name="zero" unicode="0" horiz-adv-x="1196" 
d="M598 -31q-246 0 -381 189.5t-135 537.5q0 347 135 536t381 189q245 0 380.5 -189.5t135.5 -535.5q0 -348 -135.5 -537.5t-380.5 -189.5zM598 158q152 0 231.5 138t79.5 400q0 260 -80 398.5t-231 138.5q-152 0 -231.5 -139t-79.5 -398q0 -261 79 -399.5t232 -138.5z" />
    <glyph glyph-name="one" unicode="1" horiz-adv-x="878" 
d="M449 0v1077q-153 -138 -373 -192l-56 184q161 43 264.5 118t190.5 204h178v-1391h-204z" />
    <glyph glyph-name="two" unicode="2" horiz-adv-x="1198" 
d="M1106 983q0 -108 -39.5 -194t-103.5 -141.5t-141.5 -100.5t-158 -82t-149.5 -74.5t-118.5 -88.5t-61.5 -114h741v-188h-952v121q0 113 43 200.5t111.5 142.5t151.5 99.5t166 83.5t151.5 81.5t111.5 107t43 147.5q0 109 -81.5 179.5t-203.5 70.5q-139 0 -224 -80t-85 -217
q0 -98 37 -186l-192 -64q-50 127 -50 250q0 217 143.5 351t370.5 134q209 0 349.5 -124t140.5 -314z" />
    <glyph glyph-name="three" unicode="3" horiz-adv-x="1126" 
d="M598 864q190 -5 308 -117t118 -315q0 -109 -41 -198.5t-109.5 -146.5t-155.5 -87.5t-183 -30.5q-218 0 -356.5 125.5t-158.5 349.5l201 29q13 -154 93.5 -234.5t217.5 -80.5q43 0 83 9.5t77.5 30.5t65 52.5t44.5 78.5t17 105q0 138 -80 206.5t-229 68.5h-205v145l434 348
h-635v189h893v-203z" />
    <glyph glyph-name="four" unicode="4" horiz-adv-x="1214" 
d="M766 0v283h-684v196q229 224 346.5 430t169.5 482h207q-47 -277 -159 -497t-308 -421h428v381h205v-381h182v-190h-182v-283h-205z" />
    <glyph glyph-name="five" unicode="5" horiz-adv-x="1208" 
d="M647 913q213 0 346 -133.5t133 -335.5q0 -206 -143.5 -340.5t-370.5 -134.5q-190 0 -330 110.5t-180 289.5l197 53q27 -126 110.5 -195t202.5 -69q142 0 226 80t84 206q0 125 -80 206t-209 81q-189 0 -311 -164l-181 51l138 773h733v-189h-561l-70 -368q113 79 266 79z
" />
    <glyph glyph-name="six" unicode="6" horiz-adv-x="1175" 
d="M1114 436q1 -129 -61 -236.5t-171.5 -169t-242.5 -61.5q-246 0 -391.5 155.5t-145.5 446.5q0 364 201 586t559 264l29 -186q-231 -30 -381 -151t-193 -330q121 137 334 137q199 0 330 -129.5t133 -325.5zM623 158q120 0 203 77t83 197q0 126 -77 200.5t-211 74.5
q-123 0 -206 -77t-83 -198q0 -115 83.5 -194.5t207.5 -79.5z" />
    <glyph glyph-name="seven" unicode="7" horiz-adv-x="1075" 
d="M41 1391h993v-228q-256 -282 -381.5 -561.5t-142.5 -601.5h-211q19 330 156 656.5t366 545.5h-575v-217h-205v406z" />
    <glyph glyph-name="eight" unicode="8" horiz-adv-x="1150" 
d="M854 743q90 -48 147.5 -144.5t57.5 -201.5q0 -186 -138 -307t-346 -121q-210 0 -346.5 120.5t-136.5 307.5q0 106 57 202t146 142q-162 112 -162 295q0 168 124.5 276.5t317.5 108.5q192 0 316.5 -109t124.5 -276q0 -183 -162 -293zM575 1235q-105 0 -172 -59t-67 -150
q0 -95 65.5 -152t173.5 -57t174 57t66 152q0 91 -69 150t-171 59zM575 158q123 0 201 69t78 179q0 114 -77 182.5t-202 68.5q-126 0 -202 -68.5t-76 -182.5q0 -112 77 -180t201 -68z" />
    <glyph glyph-name="nine" unicode="9" horiz-adv-x="1175" 
d="M551 1421q234 0 378 -157t144 -410q0 -753 -719 -885l-35 187q223 41 360 162t169 305q-121 -121 -328 -121q-204 0 -331.5 127.5t-127.5 322.5q0 203 139 336t351 133zM551 684q133 0 215 75t82 197q0 116 -86.5 196.5t-210.5 80.5q-123 0 -204 -78t-81 -199
q0 -127 74 -199.5t211 -72.5z" />
    <glyph glyph-name="colon" unicode=":" horiz-adv-x="536" 
d="M123 778v285h291v-285h-291zM123 0v285h291v-285h-291z" />
    <glyph glyph-name="semicolon" unicode=";" horiz-adv-x="561" 
d="M123 778v285h291v-285h-291zM133 -254v137q56 10 77 35.5t21 81.5h-108v291h315v-246q0 -131 -81 -209t-224 -90z" />
    <glyph glyph-name="less" unicode="&#x3c;" 
d="M977 117l-795 469v213l795 469l106 -172l-682 -404l682 -403z" />
    <glyph glyph-name="equal" unicode="=" 
d="M205 815v217h860v-217h-860zM205 365v217h860v-217h-860z" />
    <glyph glyph-name="greater" unicode="&#x3e;" 
d="M291 117l-107 172l682 403l-682 404l107 172l794 -469v-213z" />
    <glyph glyph-name="question" unicode="?" 
d="M504 420v307q244 73 346 144.5t102 183.5q0 87 -80.5 149t-207.5 62q-156 0 -257 -96t-114 -261l-211 23q17 244 176 388t406 144q218 0 360.5 -119.5t142.5 -289.5q0 -164 -107.5 -266t-346.5 -179v-190h-209zM471 0v256h262v-256h-262z" />
    <glyph glyph-name="at" unicode="@" horiz-adv-x="1454" 
d="M680 688q107 24 141.5 41.5t34.5 50.5q0 35 -32 56.5t-83 21.5q-62 0 -100 -33t-47 -94l-156 27q14 111 98 180.5t205 69.5q127 0 200 -66t73 -180v-322q0 -28 11.5 -37.5t43.5 -9.5q109 0 109 307q0 233 -118.5 376t-309.5 143q-214 0 -344 -164t-130 -441
q0 -294 130 -449t354 -155q183 0 362 105l72 -127q-202 -121 -434 -121q-294 0 -465.5 197.5t-171.5 549.5q0 162 44 300t124 237t198 155t261 56q175 0 308.5 -88t203 -237.5t69.5 -336.5q0 -239 -67.5 -345.5t-200.5 -106.5q-110 0 -152 94q-33 -43 -88.5 -68.5
t-122.5 -25.5q-117 0 -188.5 60t-71.5 157q0 91 55.5 143t184.5 80zM856 625q-21 -27 -129 -60q-74 -23 -98.5 -42t-24.5 -52q0 -35 27 -54.5t78 -19.5q62 0 104.5 34t42.5 85v109z" />
    <glyph glyph-name="A" unicode="A" horiz-adv-x="1431" 
d="M1194 0l-150 369h-657l-149 -369h-218l590 1434h211l590 -1434h-217zM463 555h506l-252 621z" />
    <glyph glyph-name="B" unicode="B" horiz-adv-x="1300" 
d="M1010 768q114 -50 176.5 -140.5t62.5 -207.5q0 -181 -135.5 -300.5t-341.5 -119.5h-608v1434h594q183 0 304.5 -108t121.5 -271q0 -97 -45.5 -171.5t-128.5 -115.5zM379 1235v-385h366q107 0 165.5 53.5t58.5 151.5q0 83 -60.5 131.5t-163.5 48.5h-366zM762 199
q129 0 200.5 60.5t71.5 170.5q0 103 -74 164t-198 61h-383v-456h383z" />
    <glyph glyph-name="C" unicode="C" horiz-adv-x="1318" 
d="M690 -31q-190 0 -329 97.5t-209 265t-70 385.5t70 385.5t209 264.5t329 97q218 0 371 -129t194 -346l-206 -43q-34 156 -129.5 238t-229.5 82q-188 0 -289.5 -148.5t-101.5 -400.5t101.5 -400.5t289.5 -148.5q137 0 235 86t130 256l202 -45q-39 -230 -193 -363t-374 -133
z" />
    <glyph glyph-name="D" unicode="D" horiz-adv-x="1376" 
d="M164 1434h450q322 0 501 -185t179 -532t-179 -532t-501 -185h-450v1434zM594 199q239 0 362 126.5t123 391.5t-123 391.5t-362 126.5h-215v-1036h215z" />
    <glyph glyph-name="E" unicode="E" horiz-adv-x="1161" 
d="M164 0v1434h915v-199h-698v-406h528v-192h-528v-438h698v-199h-915z" />
    <glyph glyph-name="F" unicode="F" horiz-adv-x="1150" 
d="M164 0v1434h926v-199h-709v-440h539v-199h-539v-596h-217z" />
    <glyph glyph-name="G" unicode="G" horiz-adv-x="1398" 
d="M608 737h658v-737h-138l-38 135q-146 -166 -400 -166q-190 0 -329 97.5t-209 265t-70 385.5t70 385.5t209 264.5t329 97q217 0 369.5 -128.5t195.5 -346.5l-206 -43q-36 157 -131 238.5t-228 81.5q-188 0 -289.5 -148.5t-101.5 -400.5t101.5 -400.5t289.5 -148.5
q85 0 155 30t113.5 78.5t67 107t23.5 118.5v37h-441v198z" />
    <glyph glyph-name="H" unicode="H" horiz-adv-x="1390" 
d="M164 1434h217v-594h629v594h217v-1434h-217v641h-629v-641h-217v1434z" />
    <glyph glyph-name="I" unicode="I" horiz-adv-x="544" 
d="M164 0v1434h217v-1434h-217z" />
    <glyph glyph-name="J" unicode="J" horiz-adv-x="948" 
d="M51 1432h744v-857q0 -280 -164 -427.5t-488 -147.5h-92v199h90q238 0 338.5 92.5t100.5 296.5v645h-529v199z" />
    <glyph glyph-name="K" unicode="K" horiz-adv-x="1363" 
d="M1083 0l-493 653l-209 -235v-418h-217v1434h217v-721l623 721h278l-549 -629l621 -805h-271z" />
    <glyph glyph-name="L" unicode="L" horiz-adv-x="1173" 
d="M164 1434h217v-1235h741v-199h-958v1434z" />
    <glyph glyph-name="M" unicode="M" horiz-adv-x="1632" 
d="M1235 1434h233v-1434h-213v1079l-405 -714h-70l-405 714v-1079h-211v1434h231l420 -752z" />
    <glyph glyph-name="N" unicode="N" horiz-adv-x="1380" 
d="M1001 1434h216v-1434h-224l-614 1067v-1067h-215v1434h223l614 -1069v1069z" />
    <glyph glyph-name="O" unicode="O" horiz-adv-x="1380" 
d="M690 -31q-190 0 -329 97.5t-209 265t-70 385.5t70 385.5t209 264.5t329 97t329 -97t209 -264.5t70 -385.5t-70 -385.5t-209 -265t-329 -97.5zM690 168q188 0 289.5 148.5t101.5 400.5t-101.5 400.5t-289.5 148.5t-289.5 -148.5t-101.5 -400.5t101.5 -400.5t289.5 -148.5z
" />
    <glyph glyph-name="P" unicode="P" horiz-adv-x="1304" 
d="M164 0v1434h610q202 0 335.5 -127t133.5 -312t-133.5 -311.5t-335.5 -126.5h-393v-557h-217zM381 756h373q122 0 198 66t76 173t-76 173.5t-198 66.5h-373v-479z" />
    <glyph glyph-name="Q" unicode="Q" horiz-adv-x="1413" 
d="M1321 141l-27 -172q-151 21 -260 109q-143 -109 -344 -109q-190 0 -329 97.5t-209 265t-70 385.5t70 385.5t209 264.5t329 97t329 -97t209 -264.5t70 -385.5q0 -310 -139 -512q74 -54 162 -64zM299 717q0 -252 101.5 -400.5t289.5 -148.5q114 0 199 57l-40 48t-42 49.5
t-40.5 40.5t-50.5 39t-55 24t-69 16l31 168q72 -11 129 -34t105 -64t69 -64t64 -77q9 -11 14 -17q77 139 77 363q0 252 -101.5 400.5t-289.5 148.5t-289.5 -148.5t-101.5 -400.5z" />
    <glyph glyph-name="R" unicode="R" horiz-adv-x="1318" 
d="M1122 379l115 -379h-260l-86 332q-33 124 -120 193t-216 69h-174v-594h-217v1434h604q206 0 331.5 -117t125.5 -303q0 -145 -79 -251t-216 -147q138 -56 192 -237zM381 793h367q125 0 193.5 56t68.5 165t-68.5 165t-193.5 56h-367v-442z" />
    <glyph glyph-name="S" unicode="S" horiz-adv-x="1286" 
d="M670 -31q-258 0 -425 132.5t-204 367.5l213 33q28 -161 135.5 -247.5t280.5 -86.5q340 0 340 238q0 62 -33.5 102t-115 73.5t-245.5 75.5q-268 70 -379.5 162.5t-111.5 243.5q0 179 136.5 290t356.5 111q215 0 375 -119.5t197 -308.5l-213 -39q-25 120 -124.5 194.5
t-234.5 74.5q-126 0 -201 -55.5t-75 -147.5q0 -54 32.5 -88.5t115 -67.5t253.5 -78q257 -68 367.5 -164.5t114.5 -258.5q4 -201 -145.5 -319t-409.5 -118z" />
    <glyph glyph-name="T" unicode="T" horiz-adv-x="1265" 
d="M524 0v1235h-493v199h1204v-199h-494v-1235h-217z" />
    <glyph glyph-name="U" unicode="U" horiz-adv-x="1445" 
d="M725 -31q-166 0 -294 61.5t-202.5 185.5t-74.5 294v924h217v-912q0 -179 94 -266.5t260 -87.5q164 0 258 87.5t94 266.5v912h215v-924q0 -170 -74 -293.5t-201 -185.5t-292 -62z" />
    <glyph glyph-name="V" unicode="V" horiz-adv-x="1384" 
d="M1124 1434h240l-565 -1434h-215l-564 1434h240l432 -1127z" />
    <glyph glyph-name="W" unicode="W" horiz-adv-x="1636" 
d="M1341 1434h213l-213 -1434h-225l-297 817l-299 -817h-225l-213 1434h213l156 -1090l299 834h137l299 -834z" />
    <glyph glyph-name="X" unicode="X" horiz-adv-x="1333" 
d="M1323 0h-250l-407 610l-406 -610h-250l508 741l-465 693h244l371 -553l368 553h244l-467 -691z" />
    <glyph glyph-name="Y" unicode="Y" horiz-adv-x="1271" 
d="M1010 1434h252l-519 -832v-602h-215v602l-518 832h252l375 -623z" />
    <glyph glyph-name="Z" unicode="Z" horiz-adv-x="1255" 
d="M72 0v182l852 1061h-822v191h1082v-181l-852 -1063h844v-190h-1104z" />
    <glyph glyph-name="bracketleft" unicode="[" horiz-adv-x="724" 
d="M164 -430v1956h520v-199h-305v-1558h305v-199h-520z" />
    <glyph glyph-name="backslash" unicode="\" horiz-adv-x="1187" 
d="M311 1516l754 -1549l-188 -78l-754 1543z" />
    <glyph glyph-name="bracketright" unicode="]" horiz-adv-x="724" 
d="M561 -430h-520v199h305v1558h-305v199h520v-1956z" />
    <glyph glyph-name="asciicircum" unicode="^" horiz-adv-x="1228" 
d="M1106 666h-225l-267 555l-266 -555h-225l383 768h217z" />
    <glyph glyph-name="underscore" unicode="_" horiz-adv-x="1228" 
d="M123 -301v199h983v-199h-983z" />
    <glyph glyph-name="grave" unicode="`" horiz-adv-x="704" 
d="M299 1188h-213l-246 272h279z" />
    <glyph glyph-name="a" unicode="a" horiz-adv-x="1153" 
d="M1114 184l29 -174q-81 -16 -142 -16q-147 0 -192 131q-45 -66 -136 -105.5t-204 -39.5q-172 0 -279.5 87t-107.5 226q0 135 86.5 213t284.5 121q184 40 246.5 74t62.5 96q0 63 -59 102t-156 39q-116 0 -189 -60.5t-88 -160.5l-188 28q25 166 153.5 268.5t311.5 102.5
q191 0 300 -94t109 -258v-490q0 -102 74 -102q26 0 84 12zM762 369v211q-18 -27 -71 -50.5t-187 -60.5q-131 -37 -179.5 -72.5t-48.5 -93.5q0 -69 50 -107t145 -38q129 0 210 58.5t81 152.5z" />
    <glyph glyph-name="b" unicode="b" horiz-adv-x="1228" 
d="M653 1116q220 0 357 -159t137 -414t-137 -414.5t-357 -159.5q-91 0 -171 31t-134 84v-84h-205v1434h205v-433q104 115 305 115zM637 158q143 0 224 102.5t81 282.5t-81.5 282.5t-225.5 102.5q-134 0 -210.5 -80t-76.5 -217v-176q0 -136 78 -216.5t211 -80.5z" />
    <glyph glyph-name="c" unicode="c" horiz-adv-x="1146" 
d="M598 -31q-223 0 -369.5 159t-146.5 415t146.5 414.5t369.5 158.5q184 0 317 -102.5t170 -272.5l-200 -45q-28 109 -104 170.5t-183 61.5q-137 0 -224 -104.5t-87 -280.5t87 -280.5t224 -104.5q240 0 289 252l198 -45q-35 -185 -165.5 -290.5t-321.5 -105.5z" />
    <glyph glyph-name="d" unicode="d" horiz-adv-x="1228" 
d="M881 1434h204v-1434h-204v84q-54 -53 -134.5 -84t-171.5 -31q-220 0 -356.5 159.5t-136.5 414.5t136.5 414t356.5 159q99 0 178.5 -30.5t127.5 -84.5v433zM592 158q133 0 211 80.5t78 216.5v176q0 137 -76.5 217t-210.5 80q-144 0 -225.5 -102.5t-81.5 -282.5t81 -282.5
t224 -102.5z" />
    <glyph glyph-name="e" unicode="e" horiz-adv-x="1161" 
d="M283 461q17 -147 94 -229t201 -82q107 0 179.5 51.5t127.5 160.5l159 -100q-63 -135 -182.5 -214t-283.5 -79q-228 0 -362 156.5t-134 417.5t135.5 417t360.5 156q226 0 363.5 -156t137.5 -417v-82h-796zM578 936q-126 0 -207 -83.5t-88 -227.5h591q-17 153 -94.5 232
t-201.5 79z" />
    <glyph glyph-name="f" unicode="f" horiz-adv-x="847" 
d="M262 0v897h-252v188h252v125q0 124 80 200.5t213 76.5q135 0 293 -94l-86 -162q-70 38 -113 52.5t-84 14.5q-47 0 -72.5 -25.5t-25.5 -72.5v-115h336v-188h-336v-897h-205z" />
    <glyph glyph-name="g" unicode="g" horiz-adv-x="1163" 
d="M754 119q83 -10 145 -29t112.5 -52.5t76.5 -87t26 -126.5q0 -150 -137.5 -233t-388.5 -83q-243 0 -385 81t-142 225q0 65 39 129t115 106q-113 67 -113 184q0 126 131 199q-112 112 -112 275q0 175 130.5 292t334.5 117q114 0 209 -39q35 94 110 157t176 83l52 -170
q-170 -30 -218 -143q136 -120 136 -297q0 -175 -131 -292.5t-334 -117.5q-133 0 -238 51q-63 -31 -63 -88q0 -47 45.5 -72.5t154.5 -37.5zM586 938q-118 0 -192.5 -66.5t-74.5 -164.5q0 -99 74.5 -165.5t192.5 -66.5q117 0 191.5 66.5t74.5 165.5t-74.5 165t-191.5 66z
M588 -313q327 0 327 149q0 57 -46.5 84.5t-147.5 38.5l-318 35h-8q-63 -18 -99 -62t-36 -96q0 -73 84.5 -111t243.5 -38z" />
    <glyph glyph-name="h" unicode="h" horiz-adv-x="1249" 
d="M682 1116q193 0 313.5 -122.5t120.5 -329.5v-664h-205v643q0 285 -270 285q-134 0 -213.5 -80.5t-79.5 -210.5v-637h-205v1434h205v-451q53 61 142 97t192 36z" />
    <glyph glyph-name="i" unicode="i" horiz-adv-x="491" 
d="M123 1229v244h244v-244h-244zM143 0v1085h205v-1085h-205z" />
    <glyph glyph-name="j" unicode="j" horiz-adv-x="763" 
d="M618 1473v-244h-243v244h243zM621 1085v-1073q0 -183 -108.5 -292t-283.5 -109q-140 0 -270 47l57 178q110 -37 189 -37q211 0 211 228v870h-375v188h580z" />
    <glyph glyph-name="k" unicode="k" horiz-adv-x="1116" 
d="M872 0l-358 510l-166 -180v-330h-205v1434h205v-846l438 497h269l-414 -446l465 -639h-234z" />
    <glyph glyph-name="l" unicode="l" horiz-adv-x="491" 
d="M143 0v1434h205v-1434h-205z" />
    <glyph glyph-name="m" unicode="m" horiz-adv-x="1824" 
d="M1278 1116q191 0 302.5 -115t111.5 -307v-694h-205v690q0 238 -225 238q-112 0 -177 -64t-65 -180v-684h-205v690q0 238 -225 238q-111 0 -176.5 -64t-65.5 -180v-684h-205v1085h201v-88q44 55 116.5 87t164.5 32q103 0 188.5 -40.5t136.5 -112.5q58 72 142.5 112.5
t185.5 40.5z" />
    <glyph glyph-name="n" unicode="n" horiz-adv-x="1249" 
d="M682 1116q193 0 313.5 -122.5t120.5 -329.5v-664h-205v643q0 285 -270 285q-134 0 -213.5 -80.5t-79.5 -210.5v-637h-205v1085h205v-102q53 61 142 97t192 36z" />
    <glyph glyph-name="o" unicode="o" horiz-adv-x="1187" 
d="M594 -31q-232 0 -372 156.5t-140 417.5t140 417t372 156t372 -156t140 -417t-140 -417.5t-372 -156.5zM594 158q145 0 226 103t81 282t-81 282t-226 103t-226 -103t-81 -282t81 -282t226 -103z" />
    <glyph glyph-name="p" unicode="p" horiz-adv-x="1216" 
d="M655 1116q216 0 348 -158t132 -417q0 -258 -131.5 -415t-348.5 -157q-96 0 -176 29t-131 80v-539h-205v1546h205v-75q56 49 136.5 77.5t170.5 28.5zM639 158q130 0 210.5 105.5t80.5 277.5q0 173 -80.5 280t-210.5 107q-127 0 -209 -84.5t-82 -212.5v-176
q0 -130 81.5 -213.5t209.5 -83.5z" />
    <glyph glyph-name="q" unicode="q" horiz-adv-x="1216" 
d="M868 1085h205v-1546h-205v539q-51 -51 -131 -80t-176 -29q-217 0 -348 157t-131 415q0 259 132 417t347 158q90 0 170.5 -28.5t136.5 -77.5v75zM578 158q128 0 209 83.5t81 213.5v176q0 128 -81.5 212.5t-208.5 84.5q-130 0 -210.5 -107t-80.5 -280q0 -172 80.5 -277.5
t210.5 -105.5z" />
    <glyph glyph-name="r" unicode="r" horiz-adv-x="813" 
d="M582 1116q109 0 221 -63l-86 -179q-97 54 -170 54q-92 0 -145.5 -67t-53.5 -187v-674h-205v1085h195v-98q28 57 95 93t149 36z" />
    <glyph glyph-name="s" unicode="s" horiz-adv-x="1105" 
d="M586 -31q-217 0 -362 105t-173 282l187 41q19 -116 112.5 -183t235.5 -67q127 0 195.5 39t68.5 111q0 47 -26.5 75.5t-93 50.5t-195.5 44q-228 37 -324 109.5t-96 211.5q0 141 117 234.5t292 93.5t312 -96t168 -242l-185 -47q-22 91 -105 150t-190 59q-91 0 -153 -43
t-62 -106q0 -41 25.5 -66t92 -45.5t196.5 -42.5q224 -37 322.5 -114t98.5 -222q0 -154 -123 -243t-335 -89z" />
    <glyph glyph-name="t" unicode="t" horiz-adv-x="856" 
d="M262 1372l205 62v-349h336v-188h-336v-608q0 -63 30.5 -97t86.5 -34q49 0 91.5 9t115.5 36l55 -185q-89 -29 -147 -39t-126 -10q-138 0 -224.5 82.5t-86.5 214.5v631h-252v188h252v287z" />
    <glyph glyph-name="u" unicode="u" horiz-adv-x="1206" 
d="M858 1085h205v-1085h-201v106q-50 -62 -129.5 -99.5t-167.5 -37.5q-195 0 -313.5 126.5t-118.5 326.5v663h205v-624q0 -303 252 -303q124 0 196 83t72 226v618z" />
    <glyph glyph-name="v" unicode="v" horiz-adv-x="1126" 
d="M455 0l-435 1085h232l311 -833l309 833h234l-434 -1085h-217z" />
    <glyph glyph-name="w" unicode="w" horiz-adv-x="1542" 
d="M1331 1085h191l-277 -1085h-229l-246 778l-244 -778h-229l-277 1085h189l213 -839l264 839h170l262 -839z" />
    <glyph glyph-name="x" unicode="x" horiz-adv-x="1064" 
d="M1044 0h-233l-279 424l-278 -424h-234l388 563l-369 522h233l260 -383l261 383h233l-369 -522z" />
    <glyph glyph-name="y" unicode="y" horiz-adv-x="1105" 
d="M854 1085h231l-548 -1239q-41 -94 -103.5 -133t-169.5 -39q-57 0 -182 23l33 180q88 -14 147 -14q46 0 71.5 17t45.5 63l74 176l-433 966h232l301 -723z" />
    <glyph glyph-name="z" unicode="z" horiz-adv-x="1150" 
d="M102 0v166l672 743h-651v176h907v-165l-672 -744h691v-176h-947z" />
    <glyph glyph-name="braceleft" unicode="{" horiz-adv-x="757" 
d="M563 -430q-152 0 -236.5 83.5t-84.5 235.5v494q0 43 -24 65.5t-68 22.5h-89v197h89q44 0 68 22.5t24 65.5v450q0 152 84.5 236t236.5 84h154v-199h-125q-72 0 -103.5 -31.5t-31.5 -103.5v-410q0 -183 -150 -213q150 -30 150 -213v-452q0 -72 31.5 -103.5t103.5 -31.5h125
v-199h-154z" />
    <glyph glyph-name="bar" unicode="|" horiz-adv-x="624" 
d="M205 -563v2150h215v-2150h-215z" />
    <glyph glyph-name="braceright" unicode="}" horiz-adv-x="757" 
d="M195 -430h-154v199h125q72 0 103.5 31.5t31.5 103.5v452q0 183 150 213q-150 30 -150 213v410q0 72 -31.5 103.5t-103.5 31.5h-125v199h154q152 0 236.5 -84t84.5 -236v-450q0 -43 24 -65.5t68 -22.5h88v-197h-88q-44 0 -68 -22.5t-24 -65.5v-494q0 -152 -84.5 -235.5
t-236.5 -83.5z" />
    <glyph glyph-name="asciitilde" unicode="~" 
d="M254 537l-193 61q38 149 132 229t229 80q66 0 131.5 -26t109 -57t94.5 -57t91 -26q60 0 101 40t67 126l192 -61q-38 -151 -130.5 -230t-229.5 -79q-66 0 -131.5 26t-109 56.5t-94.5 56.5t-91 26q-60 0 -101 -40t-67 -125z" />
    <glyph glyph-name="uni00A0" unicode="&#xa0;" horiz-adv-x="552" 
 />
    <glyph glyph-name="exclamdown" unicode="&#xa1;" horiz-adv-x="671" 
d="M205 1085h262v-256h-262v256zM242 666h215v-1014h-215v1014z" />
    <glyph glyph-name="cent" unicode="&#xa2;" 
d="M659 158q240 0 289 252l199 -45q-31 -159 -131 -259.5t-252 -128.5v-233h-215v238q-182 37 -294 188t-112 373t112 373t294 188v248h215v-246q147 -26 249.5 -123t133.5 -242l-201 -45q-28 109 -104 170.5t-183 61.5q-137 0 -224 -104.5t-87 -280.5t87 -280.5t224 -104.5
z" />
    <glyph glyph-name="sterling" unicode="&#xa3;" 
d="M391 201h776v-201h-1065v201q115 68 173.5 143t70.5 166h-227v174h188q-14 20 -44 56.5t-51 65.5t-44 68.5t-35 85.5t-12 97q0 176 130 291.5t333 115.5q235 0 390 -140t181 -370l-211 -30q-21 166 -114 254t-232 88q-115 0 -188.5 -65.5t-73.5 -166.5q0 -51 21 -99
t48 -81t61.5 -80.5t53.5 -89.5h367v-174h-336q-13 -179 -160 -309z" />
    <glyph glyph-name="currency" unicode="&#xa4;" horiz-adv-x="1392" 
d="M219 90l-96 96l164 162q-92 131 -92 316q0 184 92 315l-164 162l96 96l160 -160q130 105 317 105q188 0 318 -105l160 160l96 -96l-164 -162q92 -131 92 -315q0 -185 -92 -316l164 -162l-96 -96l-160 160q-130 -105 -318 -105q-187 0 -317 105zM696 344q129 0 208 87.5
t79 232.5q0 144 -79 231.5t-208 87.5t-207.5 -87t-78.5 -232t78.5 -232.5t207.5 -87.5z" />
    <glyph glyph-name="yen" unicode="&#xa5;" horiz-adv-x="1394" 
d="M1323 1434l-424 -680h330v-185h-424v-120h424v-185h-424v-264h-215v264h-426v185h426v120h-426v185h332l-424 680h252l374 -623l373 623h252z" />
    <glyph glyph-name="brokenbar" unicode="&#xa6;" horiz-adv-x="643" 
d="M205 707v880h233v-880h-233zM205 -563v880h233v-880h-233z" />
    <glyph glyph-name="section" unicode="&#xa7;" horiz-adv-x="1310" 
d="M1188 498q0 -93 -43.5 -163.5t-149.5 -150.5q84 -90 84 -223q0 -154 -113 -257t-286 -103q-190 0 -310.5 102t-140.5 277l213 26q12 -98 74.5 -152.5t159.5 -54.5q84 0 136 46t52 120q0 61 -47.5 105.5t-165.5 89.5l-239 92q-144 56 -216.5 137t-72.5 178q0 94 43 164
t149 150q-84 90 -84 223q0 153 113.5 256.5t286.5 103.5q190 0 310 -102t140 -277l-213 -26q-12 98 -74 152.5t-159 54.5q-84 0 -136.5 -46t-52.5 -120q0 -61 47.5 -105.5t165.5 -89.5l240 -92q144 -56 216.5 -137t72.5 -178zM776 326q30 -12 68 -31q129 86 129 178
q0 51 -38.5 87.5t-125.5 70.5l-274 108q-30 12 -68 31q-129 -86 -129 -178q0 -51 38.5 -87.5t125.5 -70.5z" />
    <glyph glyph-name="dieresis" unicode="&#xa8;" horiz-adv-x="921" 
d="M123 1188v233h233v-233h-233zM565 1188v233h234v-233h-234z" />
    <glyph glyph-name="copyright" unicode="&#xa9;" horiz-adv-x="1351" 
d="M676 78q-241 0 -397 163.5t-156 415.5t156 415t397 163t397 -163t156 -415t-156 -415.5t-397 -163.5zM676 231q174 0 282.5 118t108.5 308q0 189 -108 306.5t-283 117.5t-283 -117.5t-108 -306.5q0 -190 108.5 -308t282.5 -118zM684 315q-132 0 -204 90t-72 250t72 250
t204 90q105 0 172 -63.5t76 -171.5l-141 -19q-6 56 -34.5 87.5t-72.5 31.5q-127 0 -127 -205q0 -204 127 -204q45 0 73 32t34 92l141 -18q-9 -113 -76 -177.5t-172 -64.5z" />
    <glyph glyph-name="ordfeminine" unicode="&#xaa;" horiz-adv-x="696" 
d="M674 911l16 -127q-49 -10 -88 -10q-96 0 -125 84q-60 -92 -207 -92q-101 0 -164 53t-63 139q0 82 51 128t168 71q105 22 140.5 40t35.5 50q0 33 -31 53.5t-81 20.5q-60 0 -101.5 -31.5t-48.5 -85.5l-135 21q14 98 93.5 160.5t191.5 62.5q118 0 186 -58.5t68 -158.5v-270
q0 -56 43 -56q27 0 51 6zM438 1006v104q-10 -15 -35.5 -26t-99.5 -33q-68 -20 -93.5 -38.5t-25.5 -47.5q0 -34 27 -53t74 -19q66 0 109.5 32t43.5 81z" />
    <glyph glyph-name="guillemotleft" unicode="&#xab;" horiz-adv-x="1171" 
d="M623 969q-65 -208 -230 -391q166 -187 230 -394l-201 -63q-46 135 -113.5 239.5t-185.5 214.5q118 111 185.5 216.5t113.5 240.5zM1049 969q-65 -208 -230 -391q166 -187 230 -394l-201 -63q-46 135 -113.5 239.5t-185.5 214.5q118 111 185.5 216.5t113.5 240.5z" />
    <glyph glyph-name="logicalnot" unicode="&#xac;" 
d="M942 283v428h-881v198h1106v-626h-225z" />
    <glyph glyph-name="uni00AD" unicode="&#xad;" horiz-adv-x="880" 
d="M123 528v199h635v-199h-635z" />
    <glyph glyph-name="registered" unicode="&#xae;" horiz-adv-x="1351" 
d="M676 1235q241 0 397 -163t156 -415t-156 -415.5t-397 -163.5t-397 163.5t-156 415.5t156 415t397 163zM676 231q174 0 282.5 118t108.5 308q0 189 -108 306.5t-283 117.5t-283 -117.5t-108 -306.5q0 -190 108.5 -308t282.5 -118zM950 776q0 -75 -40.5 -126t-112.5 -66
l112 -252h-139l-98 243h-72v-243h-127v647h256q100 0 160.5 -55.5t60.5 -147.5zM725 690q51 0 73.5 20.5t22.5 65.5q0 88 -96 88h-125v-174h125z" />
    <glyph glyph-name="macron" unicode="&#xaf;" horiz-adv-x="942" 
d="M123 1188v164h696v-164h-696z" />
    <glyph glyph-name="degree" unicode="&#xb0;" horiz-adv-x="987" 
d="M494 735q-166 0 -268.5 102.5t-102.5 262.5t102.5 262t268.5 102t268 -102t102 -262t-102 -262.5t-268 -102.5zM494 909q84 0 135 54t51 137t-51 136.5t-135 53.5t-135.5 -53.5t-51.5 -136.5t51.5 -137t135.5 -54z" />
    <glyph glyph-name="plusminus" unicode="&#xb1;" 
d="M743 899h424v-197h-424v-376h-215v376h-426v197h426v428h215v-428zM123 0v197h1024v-197h-1024z" />
    <glyph glyph-name="acute" unicode="&#xb4;" horiz-adv-x="704" 
d="M123 1188l180 272h279l-246 -272h-213z" />
    <glyph glyph-name="paragraph" unicode="&#xb6;" horiz-adv-x="1331" 
d="M446 -246v1032q-133 0 -228 93t-95 231q0 140 100 232t252 92h692v-1680h-215v1481h-290v-1481h-216z" />
    <glyph glyph-name="periodcentered" unicode="&#xb7;" horiz-adv-x="782" 
d="M246 594v285h291v-285h-291z" />
    <glyph glyph-name="cedilla" unicode="&#xb8;" horiz-adv-x="757" 
d="M422 -92q90 0 151.5 -50t61.5 -126q0 -98 -67.5 -158.5t-182.5 -60.5q-88 0 -157.5 37.5t-104.5 103.5l121 80q28 -45 59.5 -63.5t81.5 -18.5q49 0 75.5 22t24.5 58q-2 33 -27.5 51t-72.5 18q-49 0 -100 -32l-111 59l117 203h143l-76 -129q30 6 64 6z" />
    <glyph glyph-name="ordmasculine" unicode="&#xba;" horiz-adv-x="708" 
d="M354 760q-142 0 -227.5 93.5t-85.5 250.5t85.5 250.5t227.5 93.5t228 -93.5t86 -250.5t-86 -250.5t-228 -93.5zM354 897q81 0 123.5 56t42.5 151t-42.5 151t-123.5 56t-123.5 -56t-42.5 -151t42.5 -151t123.5 -56z" />
    <glyph glyph-name="guillemotright" unicode="&#xbb;" horiz-adv-x="1171" 
d="M623 575q-118 -110 -185.5 -214.5t-113.5 -239.5l-201 63q65 209 229 394q-74 82 -135.5 184.5t-93.5 206.5l201 63q46 -135 113.5 -240.5t185.5 -216.5zM750 1032q46 -135 113.5 -240.5t185.5 -216.5q-118 -110 -185.5 -214.5t-113.5 -239.5l-201 63q65 209 229 394
q-74 82 -135.5 184.5t-93.5 206.5z" />
    <glyph glyph-name="onequarter" unicode="&#xbc;" horiz-adv-x="1656" 
d="M1081 1505l146 -61l-776 -1546l-144 59zM440 573h-166v641q-42 -40 -90.5 -65.5t-130.5 -50.5l-43 149q103 32 165 72.5t122 114.5h143v-861zM1522 315h104v-155h-104v-160h-166v160h-416v157q130 132 200 257.5t97 285.5h172q-24 -165 -100 -306.5t-183 -238.5h230v205
h166v-205z" />
    <glyph glyph-name="onehalf" unicode="&#xbd;" horiz-adv-x="1720" 
d="M1081 1505l146 -61l-776 -1546l-144 59zM440 573h-166v641q-42 -40 -90.5 -65.5t-130.5 -50.5l-43 149q103 32 165 72.5t122 114.5h143v-861zM1673 594q0 -62 -22 -112t-58.5 -83.5t-81.5 -60t-92.5 -47.5t-89 -40.5t-75 -44t-46.5 -52.5h441v-154h-600v88
q0 72 25.5 127.5t65.5 89.5t89 60.5t98 48t89 45t65.5 59t25.5 82.5q0 54 -41.5 89.5t-107.5 35.5q-72 0 -116 -42.5t-44 -111.5q0 -52 23 -106l-158 -47q-31 82 -31 153q0 135 91.5 221.5t234.5 86.5q137 0 226 -80.5t89 -204.5z" />
    <glyph glyph-name="threequarters" unicode="&#xbe;" horiz-adv-x="1806" 
d="M1231 1505l145 -61l-776 -1546l-143 59zM651 852q0 -130 -87 -213.5t-224 -83.5q-140 0 -229 80.5t-101 218.5l164 23q15 -168 166 -168q66 0 105.5 38.5t39.5 104.5q0 137 -153 137h-142v105l252 186h-376v154h567l2 -166l-232 -170q114 -5 181 -71t67 -175zM1671 315
h105v-155h-105v-160h-166v160h-415v157q130 131 199.5 257t96.5 286h173q-24 -165 -100 -306.5t-183 -238.5h229v205h166v-205z" />
    <glyph glyph-name="questiondown" unicode="&#xbf;" 
d="M799 1085v-256h-262v256h262zM766 666v-308q-245 -73 -347 -144t-102 -183q0 -87 81 -149t208 -62q156 0 257 95.5t114 260.5l211 -22q-17 -244 -176 -388.5t-406 -144.5q-218 0 -361 120t-143 290q0 164 108 265.5t347 178.5v191h209z" />
    <glyph glyph-name="Agrave" unicode="&#xc0;" horiz-adv-x="1431" 
d="M823 1536h-213l-245 272h278zM1194 0l-150 369h-657l-149 -369h-218l590 1434h211l590 -1434h-217zM463 555h506l-252 621z" />
    <glyph glyph-name="Aacute" unicode="&#xc1;" horiz-adv-x="1431" 
d="M1049 1808l-246 -272h-213l180 272h279zM1194 0l-150 369h-657l-149 -369h-218l590 1434h211l590 -1434h-217zM463 555h506l-252 621z" />
    <glyph glyph-name="Acircumflex" unicode="&#xc2;" horiz-adv-x="1431" 
d="M717 1677l-144 -182l-149 113l143 180h299l144 -180l-150 -113zM1194 0l-150 369h-657l-149 -369h-218l590 1434h211l590 -1434h-217zM463 555h506l-252 621z" />
    <glyph glyph-name="Atilde" unicode="&#xc3;" horiz-adv-x="1431" 
d="M592 1608q-55 0 -70 -72h-141q5 113 57 175.5t144 62.5q54 0 144 -40t120 -40q54 0 69 69h142q-4 -114 -57 -175.5t-142 -61.5q-54 0 -145 41t-121 41zM1194 0l-150 369h-657l-149 -369h-218l590 1434h211l590 -1434h-217zM463 555h506l-252 621z" />
    <glyph glyph-name="Adieresis" unicode="&#xc4;" horiz-adv-x="1431" 
d="M612 1769v-233h-233v233h233zM1055 1769v-233h-234v233h234zM1194 0l-150 369h-657l-149 -369h-218l590 1434h211l590 -1434h-217zM463 555h506l-252 621z" />
    <glyph glyph-name="Aring" unicode="&#xc5;" horiz-adv-x="1431" 
d="M1194 0l-150 369h-657l-149 -369h-218l553 1346q-116 63 -116 196q0 102 72.5 167t187.5 65t187.5 -65t72.5 -167q0 -65 -31.5 -117t-87.5 -82l553 -1343h-217zM717 1651q-49 0 -78 -30.5t-29 -78.5t29 -78t78 -30t77.5 30t28.5 78t-28.5 78.5t-77.5 30.5zM463 555h506
l-252 621z" />
    <glyph glyph-name="AE" unicode="&#xc6;" horiz-adv-x="1714" 
d="M1632 1245h-557v-399h490v-184h-490v-474h557v-188h-764v360h-491l-137 -360h-220l555 1434h1057v-189zM444 539h424v706h-153z" />
    <glyph glyph-name="Ccedilla" unicode="&#xc7;" horiz-adv-x="1318" 
d="M1257 465q-38 -218 -177.5 -349t-342.5 -145l-59 -100q30 6 63 6q90 0 151.5 -50t61.5 -126q0 -98 -67 -158.5t-182 -60.5q-88 0 -158 37.5t-105 103.5l121 80q27 -45 59.5 -63.5t82.5 -18.5q49 0 75.5 22t24.5 58q-2 33 -27.5 51.5t-72.5 18.5q-48 0 -101 -33l-110 59
l102 178q-243 35 -378.5 237t-135.5 505q0 218 70 385.5t209 264.5t329 97q218 0 371 -129t194 -346l-206 -43q-34 156 -129.5 238t-229.5 82q-188 0 -289.5 -148.5t-101.5 -400.5t101.5 -400.5t289.5 -148.5q137 0 235 86t130 256z" />
    <glyph glyph-name="Egrave" unicode="&#xc8;" horiz-adv-x="1161" 
d="M735 1536h-213l-246 272h279zM164 0v1434h915v-199h-698v-406h528v-192h-528v-438h698v-199h-915z" />
    <glyph glyph-name="Eacute" unicode="&#xc9;" horiz-adv-x="1161" 
d="M502 1536l180 272h279l-246 -272h-213zM164 0v1434h915v-199h-698v-406h528v-192h-528v-438h698v-199h-915z" />
    <glyph glyph-name="Ecircumflex" unicode="&#xca;" horiz-adv-x="1161" 
d="M629 1677l-144 -182l-149 113l143 180h299l144 -180l-150 -113zM1079 1235h-698v-406h528v-192h-528v-438h698v-199h-915v1434h915v-199z" />
    <glyph glyph-name="Edieresis" unicode="&#xcb;" horiz-adv-x="1161" 
d="M291 1536v233h233v-233h-233zM733 1536v233h234v-233h-234zM164 0v1434h915v-199h-698v-406h528v-192h-528v-438h698v-199h-915z" />
    <glyph glyph-name="Igrave" unicode="&#xcc;" horiz-adv-x="544" 
d="M389 1536h-213l-246 272h279zM164 0v1434h217v-1434h-217z" />
    <glyph glyph-name="Iacute" unicode="&#xcd;" horiz-adv-x="544" 
d="M156 1536l180 272h278l-245 -272h-213zM164 0v1434h217v-1434h-217z" />
    <glyph glyph-name="Icircumflex" unicode="&#xce;" horiz-adv-x="544" 
d="M432 1788l143 -180l-149 -113l-143 182l-144 -182l-149 113l143 180h299zM164 0v1434h217v-1434h-217z" />
    <glyph glyph-name="Idieresis" unicode="&#xcf;" horiz-adv-x="544" 
d="M-55 1536v233h233v-233h-233zM387 1536v233h234v-233h-234zM164 0v1434h217v-1434h-217z" />
    <glyph glyph-name="Eth" unicode="&#xd0;" horiz-adv-x="1427" 
d="M666 1434q322 0 501 -185t179 -532t-179 -532t-501 -185h-451v633h-195v188h195v613h451zM645 199q239 0 362 126.5t123 391.5t-123 391.5t-362 126.5h-215v-414h301v-188h-301v-434h215z" />
    <glyph glyph-name="Ntilde" unicode="&#xd1;" horiz-adv-x="1380" 
d="M561 1608q-54 0 -69 -72h-142q5 113 57 175.5t144 62.5q54 0 144 -40t120 -40q55 0 70 69h141q-4 -114 -57 -175.5t-142 -61.5q-54 0 -145 41t-121 41zM1001 1434h216v-1434h-224l-614 1067v-1067h-215v1434h223l614 -1069v1069z" />
    <glyph glyph-name="Ograve" unicode="&#xd2;" horiz-adv-x="1380" 
d="M797 1567h-213l-246 272h278zM690 -31q-190 0 -329 97.5t-209 265t-70 385.5t70 385.5t209 264.5t329 97t329 -97t209 -264.5t70 -385.5t-70 -385.5t-209 -265t-329 -97.5zM690 168q188 0 289.5 148.5t101.5 400.5t-101.5 400.5t-289.5 148.5t-289.5 -148.5
t-101.5 -400.5t101.5 -400.5t289.5 -148.5z" />
    <glyph glyph-name="Oacute" unicode="&#xd3;" horiz-adv-x="1380" 
d="M563 1567l180 272h279l-246 -272h-213zM690 -31q-190 0 -329 97.5t-209 265t-70 385.5t70 385.5t209 264.5t329 97t329 -97t209 -264.5t70 -385.5t-70 -385.5t-209 -265t-329 -97.5zM690 168q188 0 289.5 148.5t101.5 400.5t-101.5 400.5t-289.5 148.5t-289.5 -148.5
t-101.5 -400.5t101.5 -400.5t289.5 -148.5z" />
    <glyph glyph-name="Ocircumflex" unicode="&#xd4;" horiz-adv-x="1380" 
d="M690 1708l-143 -182l-150 112l144 181h299l143 -181l-149 -112zM690 1464q190 0 329 -97t209 -264.5t70 -385.5t-70 -385.5t-209 -265t-329 -97.5t-329 97.5t-209 265t-70 385.5t70 385.5t209 264.5t329 97zM690 168q188 0 289.5 148.5t101.5 400.5t-101.5 400.5
t-289.5 148.5t-289.5 -148.5t-101.5 -400.5t101.5 -400.5t289.5 -148.5z" />
    <glyph glyph-name="Otilde" unicode="&#xd5;" horiz-adv-x="1380" 
d="M831 1556q-54 0 -145 41t-121 41q-55 0 -69 -71h-142q5 113 57 175t144 62q54 0 144 -40t120 -40q55 0 70 70h141q-4 -114 -57 -176t-142 -62zM690 -31q-190 0 -329 97.5t-209 265t-70 385.5t70 385.5t209 264.5t329 97t329 -97t209 -264.5t70 -385.5t-70 -385.5
t-209 -265t-329 -97.5zM690 168q188 0 289.5 148.5t101.5 400.5t-101.5 400.5t-289.5 148.5t-289.5 -148.5t-101.5 -400.5t101.5 -400.5t289.5 -148.5z" />
    <glyph glyph-name="Odieresis" unicode="&#xd6;" horiz-adv-x="1380" 
d="M352 1567v233h234v-233h-234zM795 1567v233h233v-233h-233zM690 -31q-190 0 -329 97.5t-209 265t-70 385.5t70 385.5t209 264.5t329 97t329 -97t209 -264.5t70 -385.5t-70 -385.5t-209 -265t-329 -97.5zM690 168q188 0 289.5 148.5t101.5 400.5t-101.5 400.5
t-289.5 148.5t-289.5 -148.5t-101.5 -400.5t101.5 -400.5t289.5 -148.5z" />
    <glyph glyph-name="multiply" unicode="&#xd7;" 
d="M1092 997l-308 -307l301 -301l-139 -139l-301 301l-307 -307l-152 151l308 307l-301 302l139 139l301 -301l307 307z" />
    <glyph glyph-name="Oslash" unicode="&#xd8;" horiz-adv-x="1380" 
d="M1106 1292q94 -100 143 -247.5t49 -327.5q0 -218 -70 -385.5t-209 -265t-329 -97.5q-159 0 -287 70l-81 -145l-144 75l96 172q-94 100 -143 248t-49 328q0 218 70 385.5t209 264.5t329 97q162 0 285 -69l82 145l145 -76zM287 717q0 -242 90 -391l506 905q-82 51 -193 51
q-194 0 -298.5 -153t-104.5 -412zM690 152q194 0 299 153t105 412q0 242 -90 391l-508 -903q83 -53 194 -53z" />
    <glyph glyph-name="Ugrave" unicode="&#xd9;" horiz-adv-x="1445" 
d="M829 1536h-213l-245 272h278zM725 -31q-166 0 -294 61.5t-202.5 185.5t-74.5 294v924h217v-912q0 -179 94 -266.5t260 -87.5q164 0 258 87.5t94 266.5v912h215v-924q0 -170 -74 -293.5t-201 -185.5t-292 -62z" />
    <glyph glyph-name="Uacute" unicode="&#xda;" horiz-adv-x="1445" 
d="M596 1536l180 272h279l-246 -272h-213zM725 -31q-166 0 -294 61.5t-202.5 185.5t-74.5 294v924h217v-912q0 -179 94 -266.5t260 -87.5q164 0 258 87.5t94 266.5v912h215v-924q0 -170 -74 -293.5t-201 -185.5t-292 -62z" />
    <glyph glyph-name="Ucircumflex" unicode="&#xdb;" horiz-adv-x="1445" 
d="M723 1677l-143 -182l-150 113l143 180h299l144 -180l-150 -113zM1077 1434h215v-924q0 -170 -74 -293.5t-201 -185.5t-292 -62q-166 0 -294 61.5t-202.5 185.5t-74.5 294v924h217v-912q0 -179 94 -266.5t260 -87.5q164 0 258 87.5t94 266.5v912z" />
    <glyph glyph-name="Udieresis" unicode="&#xdc;" horiz-adv-x="1445" 
d="M385 1536v233h233v-233h-233zM827 1536v233h234v-233h-234zM725 -31q-166 0 -294 61.5t-202.5 185.5t-74.5 294v924h217v-912q0 -179 94 -266.5t260 -87.5q164 0 258 87.5t94 266.5v912h215v-924q0 -170 -74 -293.5t-201 -185.5t-292 -62z" />
    <glyph glyph-name="Yacute" unicode="&#xdd;" horiz-adv-x="1271" 
d="M969 1808l-246 -272h-213l180 272h279zM1010 1434h252l-519 -832v-602h-215v602l-518 832h252l375 -623z" />
    <glyph glyph-name="Thorn" unicode="&#xde;" horiz-adv-x="1304" 
d="M774 1171q202 0 335.5 -126.5t133.5 -311.5t-133.5 -311.5t-335.5 -126.5h-393v-295h-217v1434h217v-263h393zM754 494q122 0 198 66t76 173t-76 173.5t-198 66.5h-373v-479h373z" />
    <glyph glyph-name="germandbls" unicode="&#xdf;" horiz-adv-x="1228" 
d="M918 764q107 -40 168 -130t61 -206q0 -196 -133 -312t-350 -116h-160v188h160q132 0 205 63t73 177q0 112 -73.5 175t-204.5 63h-160v180h121q121 0 188.5 55.5t67.5 155.5q0 94 -72 156.5t-184 62.5q-137 0 -207 -72.5t-70 -208.5v-995h-205v1001q0 212 129.5 337.5
t352.5 125.5q198 0 329 -116t131 -291q0 -209 -167 -293z" />
    <glyph glyph-name="agrave" unicode="&#xe0;" horiz-adv-x="1153" 
d="M653 1219h-213l-245 272h278zM1114 184l29 -174q-81 -16 -142 -16q-147 0 -192 131q-45 -66 -136 -105.5t-204 -39.5q-172 0 -279.5 87t-107.5 226q0 135 86.5 213t284.5 121q184 40 246.5 74t62.5 96q0 63 -59 102t-156 39q-116 0 -189 -60.5t-88 -160.5l-188 28
q25 166 153.5 268.5t311.5 102.5q191 0 300 -94t109 -258v-490q0 -102 74 -102q26 0 84 12zM762 369v211q-18 -27 -71 -50.5t-187 -60.5q-131 -37 -179.5 -72.5t-48.5 -93.5q0 -69 50 -107t145 -38q129 0 210 58.5t81 152.5z" />
    <glyph glyph-name="aacute" unicode="&#xe1;" horiz-adv-x="1153" 
d="M879 1491l-246 -272h-213l180 272h279zM1114 184l29 -174q-81 -16 -142 -16q-147 0 -192 131q-45 -66 -136 -105.5t-204 -39.5q-172 0 -279.5 87t-107.5 226q0 135 86.5 213t284.5 121q184 40 246.5 74t62.5 96q0 63 -59 102t-156 39q-116 0 -189 -60.5t-88 -160.5
l-188 28q25 166 153.5 268.5t311.5 102.5q191 0 300 -94t109 -258v-490q0 -102 74 -102q26 0 84 12zM762 369v211q-18 -27 -71 -50.5t-187 -60.5q-131 -37 -179.5 -72.5t-48.5 -93.5q0 -69 50 -107t145 -38q129 0 210 58.5t81 152.5z" />
    <glyph glyph-name="acircumflex" unicode="&#xe2;" horiz-adv-x="1153" 
d="M547 1360l-144 -182l-149 112l143 180h299l144 -180l-150 -112zM1114 184l29 -174q-81 -16 -142 -16q-147 0 -192 131q-45 -66 -136 -105.5t-204 -39.5q-172 0 -279.5 87t-107.5 226q0 135 86.5 213t284.5 121q184 40 246.5 74t62.5 96q0 63 -59 102t-156 39
q-116 0 -189 -60.5t-88 -160.5l-188 28q25 166 153.5 268.5t311.5 102.5q191 0 300 -94t109 -258v-490q0 -102 74 -102q26 0 84 12zM762 369v211q-18 -27 -71 -50.5t-187 -60.5q-131 -37 -179.5 -72.5t-48.5 -93.5q0 -69 50 -107t145 -38q129 0 210 58.5t81 152.5z" />
    <glyph glyph-name="atilde" unicode="&#xe3;" horiz-adv-x="1153" 
d="M422 1290q-56 0 -70 -71h-141q5 113 57 175t144 62q54 0 144 -40t120 -40q54 0 69 70h142q-4 -114 -57 -176t-142 -62q-54 0 -145 41t-121 41zM1114 184l29 -174q-81 -16 -142 -16q-147 0 -192 131q-45 -66 -136 -105.5t-204 -39.5q-172 0 -279.5 87t-107.5 226
q0 135 86.5 213t284.5 121q184 40 246.5 74t62.5 96q0 63 -59 102t-156 39q-116 0 -189 -60.5t-88 -160.5l-188 28q25 166 153.5 268.5t311.5 102.5q191 0 300 -94t109 -258v-490q0 -102 74 -102q26 0 84 12zM762 369v211q-18 -27 -71 -50.5t-187 -60.5
q-131 -37 -179.5 -72.5t-48.5 -93.5q0 -69 50 -107t145 -38q129 0 210 58.5t81 152.5z" />
    <glyph glyph-name="adieresis" unicode="&#xe4;" horiz-adv-x="1153" 
d="M442 1452v-233h-233v233h233zM885 1452v-233h-234v233h234zM1114 184l29 -174q-81 -16 -142 -16q-147 0 -192 131q-45 -66 -136 -105.5t-204 -39.5q-172 0 -279.5 87t-107.5 226q0 135 86.5 213t284.5 121q184 40 246.5 74t62.5 96q0 63 -59 102t-156 39
q-116 0 -189 -60.5t-88 -160.5l-188 28q25 166 153.5 268.5t311.5 102.5q191 0 300 -94t109 -258v-490q0 -102 74 -102q26 0 84 12zM762 369v211q-18 -27 -71 -50.5t-187 -60.5q-131 -37 -179.5 -72.5t-48.5 -93.5q0 -69 50 -107t145 -38q129 0 210 58.5t81 152.5z" />
    <glyph glyph-name="aring" unicode="&#xe5;" horiz-adv-x="1153" 
d="M1114 184l29 -174q-81 -16 -142 -16q-147 0 -192 131q-45 -66 -136 -105.5t-204 -39.5q-172 0 -279.5 87t-107.5 226q0 135 86.5 213t284.5 121q184 40 246.5 74t62.5 96q0 63 -59 102t-156 39q-116 0 -189 -60.5t-88 -160.5l-188 28q17 114 85.5 200.5t174.5 131.5
q-55 61 -55 148q0 102 72.5 166.5t187.5 64.5t187.5 -64.5t72.5 -166.5q0 -87 -53 -146q98 -42 150 -122t52 -193v-490q0 -102 74 -102q26 0 84 12zM440 1225q0 -48 29 -78.5t78 -30.5t77.5 30.5t28.5 78.5t-28.5 78t-77.5 30t-78 -30t-29 -78zM762 369v211
q-18 -27 -71 -50.5t-187 -60.5q-131 -37 -179.5 -72.5t-48.5 -93.5q0 -69 50 -107t145 -38q129 0 210 58.5t81 152.5z" />
    <glyph glyph-name="ae" unicode="&#xe6;" horiz-adv-x="1816" 
d="M946 459q17 -142 92 -221.5t197 -79.5q106 0 176 49.5t127 157.5l166 -107q-65 -133 -184 -211t-285 -78q-253 0 -383 195q-52 -90 -150.5 -142.5t-228.5 -52.5q-172 0 -281.5 93.5t-109.5 234.5q0 139 86 215t289 119q169 36 225.5 70.5t56.5 95.5q0 60 -54 95.5
t-144 35.5q-108 0 -176.5 -55t-83.5 -156l-199 31q25 167 150.5 267.5t308.5 100.5q246 0 338 -162q128 162 356 162q227 0 363.5 -155.5t136.5 -417.5v-84h-789zM1235 928q-125 0 -203.5 -81.5t-85.5 -219.5h578q-12 148 -88.5 224.5t-200.5 76.5zM739 369v204
q-20 -29 -68.5 -52.5t-156.5 -53.5q-138 -38 -182.5 -70t-44.5 -100q0 -61 49.5 -100t138.5 -39q114 0 189 61.5t75 149.5z" />
    <glyph glyph-name="ccedilla" unicode="&#xe7;" horiz-adv-x="1146" 
d="M598 158q240 0 289 252l198 -45q-34 -173 -151 -277.5t-289 -116.5l-59 -100q30 6 63 6q90 0 151.5 -50t61.5 -126q0 -98 -67.5 -158.5t-182.5 -60.5q-88 0 -157.5 37.5t-104.5 103.5l121 80q28 -45 59.5 -63.5t81.5 -18.5q49 0 76 22t25 58q-2 33 -28 51.5t-73 18.5
t-100 -33l-111 59l105 180q-188 33 -306 185.5t-118 380.5q0 256 146.5 414.5t369.5 158.5q184 0 317 -102.5t170 -272.5l-200 -45q-28 109 -104 170.5t-183 61.5q-137 0 -224 -104.5t-87 -280.5t87 -280.5t224 -104.5z" />
    <glyph glyph-name="egrave" unicode="&#xe8;" horiz-adv-x="1161" 
d="M684 1219h-213l-246 272h279zM283 461q17 -147 94 -229t201 -82q107 0 179.5 51.5t127.5 160.5l159 -100q-63 -135 -182.5 -214t-283.5 -79q-228 0 -362 156.5t-134 417.5t135.5 417t360.5 156q226 0 363.5 -156t137.5 -417v-82h-796zM578 936q-126 0 -207 -83.5
t-88 -227.5h591q-17 153 -94.5 232t-201.5 79z" />
    <glyph glyph-name="eacute" unicode="&#xe9;" horiz-adv-x="1161" 
d="M909 1491l-245 -272h-213l180 272h278zM283 461q17 -147 94 -229t201 -82q107 0 179.5 51.5t127.5 160.5l159 -100q-63 -135 -182.5 -214t-283.5 -79q-228 0 -362 156.5t-134 417.5t135.5 417t360.5 156q226 0 363.5 -156t137.5 -417v-82h-796zM578 936
q-126 0 -207 -83.5t-88 -227.5h591q-17 153 -94.5 232t-201.5 79z" />
    <glyph glyph-name="ecircumflex" unicode="&#xea;" horiz-adv-x="1161" 
d="M578 1360l-144 -182l-149 112l143 180h299l143 -180l-149 -112zM283 461q17 -147 94 -229t201 -82q107 0 179.5 51.5t127.5 160.5l159 -100q-63 -135 -182.5 -214t-283.5 -79q-228 0 -362 156.5t-134 417.5t135.5 417t360.5 156q226 0 363.5 -156t137.5 -417v-82h-796z
M578 936q-126 0 -207 -83.5t-88 -227.5h591q-17 153 -94.5 232t-201.5 79z" />
    <glyph glyph-name="edieresis" unicode="&#xeb;" horiz-adv-x="1161" 
d="M473 1452v-233h-233v233h233zM915 1452v-233h-233v233h233zM283 461q17 -147 94 -229t201 -82q107 0 179.5 51.5t127.5 160.5l159 -100q-63 -135 -182.5 -214t-283.5 -79q-228 0 -362 156.5t-134 417.5t135.5 417t360.5 156q226 0 363.5 -156t137.5 -417v-82h-796z
M578 936q-126 0 -207 -83.5t-88 -227.5h591q-17 153 -94.5 232t-201.5 79z" />
    <glyph glyph-name="igrave" unicode="&#xec;" horiz-adv-x="491" 
d="M373 1188h-213l-246 272h279zM143 0v1085h205v-1085h-205z" />
    <glyph glyph-name="iacute" unicode="&#xed;" horiz-adv-x="491" 
d="M119 1188l180 272h279l-246 -272h-213zM143 0v1085h205v-1085h-205z" />
    <glyph glyph-name="icircumflex" unicode="&#xee;" horiz-adv-x="491" 
d="M395 1440l144 -180l-150 -113l-143 182l-144 -182l-149 113l143 180h299zM143 0v1085h205v-1085h-205z" />
    <glyph glyph-name="idieresis" unicode="&#xef;" horiz-adv-x="491" 
d="M-31 1188v233h234v-233h-234zM289 1188v233h233v-233h-233zM143 0v1085h205v-1085h-205z" />
    <glyph glyph-name="eth" unicode="&#xf0;" horiz-adv-x="1187" 
d="M854 1235q252 -367 252 -696q0 -262 -138.5 -416t-373.5 -154q-232 0 -372 149t-140 398q0 240 137.5 392.5t353.5 152.5q119 0 199 -45q-51 98 -100 170l-242 -66l-33 103l209 55q-68 86 -127 152v6h219q66 -78 88 -109l248 66l31 -103zM594 158q143 0 225 97.5
t82 270.5q0 161 -81.5 253.5t-225.5 92.5q-145 0 -226 -93.5t-81 -262.5t80.5 -263.5t226.5 -94.5z" />
    <glyph glyph-name="ntilde" unicode="&#xf1;" horiz-adv-x="1249" 
d="M526 1290q-55 0 -69 -71h-142q5 113 57 175t144 62q54 0 144 -40t120 -40q55 0 70 70h141q-4 -114 -56.5 -176t-141.5 -62q-54 0 -145.5 41t-121.5 41zM682 1116q193 0 313.5 -122.5t120.5 -329.5v-664h-205v643q0 285 -270 285q-134 0 -213.5 -80.5t-79.5 -210.5v-637
h-205v1085h205v-102q53 61 142 97t192 36z" />
    <glyph glyph-name="ograve" unicode="&#xf2;" horiz-adv-x="1187" 
d="M700 1219h-213l-245 272h278zM594 -31q-232 0 -372 156.5t-140 417.5t140 417t372 156t372 -156t140 -417t-140 -417.5t-372 -156.5zM594 158q145 0 226 103t81 282t-81 282t-226 103t-226 -103t-81 -282t81 -282t226 -103z" />
    <glyph glyph-name="oacute" unicode="&#xf3;" horiz-adv-x="1187" 
d="M467 1219l180 272h279l-246 -272h-213zM594 -31q-232 0 -372 156.5t-140 417.5t140 417t372 156t372 -156t140 -417t-140 -417.5t-372 -156.5zM594 158q145 0 226 103t81 282t-81 282t-226 103t-226 -103t-81 -282t81 -282t226 -103z" />
    <glyph glyph-name="ocircumflex" unicode="&#xf4;" horiz-adv-x="1187" 
d="M594 1360l-143 -182l-150 112l143 180h299l144 -180l-150 -112zM594 1116q232 0 372 -156t140 -417t-140 -417.5t-372 -156.5t-372 156.5t-140 417.5t140 417t372 156zM594 158q145 0 226 103t81 282t-81 282t-226 103t-226 -103t-81 -282t81 -282t226 -103z" />
    <glyph glyph-name="otilde" unicode="&#xf5;" horiz-adv-x="1187" 
d="M735 1208q-54 0 -145 41t-121 41q-56 0 -70 -71h-141q5 113 57 175t144 62q54 0 144 -40t120 -40q55 0 70 70h141q-4 -114 -57 -176t-142 -62zM594 -31q-232 0 -372 156.5t-140 417.5t140 417t372 156t372 -156t140 -417t-140 -417.5t-372 -156.5zM594 158q145 0 226 103
t81 282t-81 282t-226 103t-226 -103t-81 -282t81 -282t226 -103z" />
    <glyph glyph-name="odieresis" unicode="&#xf6;" horiz-adv-x="1187" 
d="M256 1219v233h233v-233h-233zM698 1219v233h234v-233h-234zM594 -31q-232 0 -372 156.5t-140 417.5t140 417t372 156t372 -156t140 -417t-140 -417.5t-372 -156.5zM594 158q145 0 226 103t81 282t-81 282t-226 103t-226 -103t-81 -282t81 -282t226 -103z" />
    <glyph glyph-name="divide" unicode="&#xf7;" 
d="M508 1016v246h254v-246h-254zM164 590v217h942v-217h-942zM508 133v246h254v-246h-254z" />
    <glyph glyph-name="oslash" unicode="&#xf8;" horiz-adv-x="1187" 
d="M983 940q123 -155 123 -397q0 -261 -140 -417.5t-372 -156.5q-157 0 -272 74l-95 -129l-125 82l107 145q-127 152 -127 402q0 261 140 417t372 156q151 0 274 -74l95 129l122 -90zM281 543q0 -142 49 -236l428 584q-70 45 -164 45q-148 0 -230.5 -105.5t-82.5 -287.5z
M594 150q148 0 230.5 105.5t82.5 287.5q0 139 -47 231l-428 -581q67 -43 162 -43z" />
    <glyph glyph-name="ugrave" unicode="&#xf9;" horiz-adv-x="1206" 
d="M711 1188h-213l-246 272h278zM858 1085h205v-1085h-201v106q-50 -62 -129.5 -99.5t-167.5 -37.5q-195 0 -313.5 126.5t-118.5 326.5v663h205v-624q0 -303 252 -303q124 0 196 83t72 226v618z" />
    <glyph glyph-name="uacute" unicode="&#xfa;" horiz-adv-x="1206" 
d="M936 1460l-246 -272h-213l180 272h279zM858 1085h205v-1085h-201v106q-50 -62 -129.5 -99.5t-167.5 -37.5q-195 0 -313.5 126.5t-118.5 326.5v663h205v-624q0 -303 252 -303q124 0 196 83t72 226v618z" />
    <glyph glyph-name="ucircumflex" unicode="&#xfb;" horiz-adv-x="1206" 
d="M604 1329l-143 -182l-150 113l144 180h299l143 -180l-149 -113zM858 1085h205v-1085h-201v106q-50 -62 -129.5 -99.5t-167.5 -37.5q-195 0 -313.5 126.5t-118.5 326.5v663h205v-624q0 -303 252 -303q124 0 196 83t72 226v618z" />
    <glyph glyph-name="udieresis" unicode="&#xfc;" horiz-adv-x="1206" 
d="M500 1421v-233h-234v233h234zM942 1421v-233h-233v233h233zM858 1085h205v-1085h-201v106q-50 -62 -129.5 -99.5t-167.5 -37.5q-195 0 -313.5 126.5t-118.5 326.5v663h205v-624q0 -303 252 -303q124 0 196 83t72 226v618z" />
    <glyph glyph-name="yacute" unicode="&#xfd;" horiz-adv-x="1105" 
d="M885 1460l-246 -272h-213l180 272h279zM854 1085h231l-548 -1239q-41 -94 -103.5 -133t-169.5 -39q-57 0 -182 23l33 180q88 -14 147 -14q46 0 71.5 17t45.5 63l74 176l-433 966h232l301 -723z" />
    <glyph glyph-name="thorn" unicode="&#xfe;" horiz-adv-x="1216" 
d="M655 1116q216 0 348 -158t132 -417q0 -258 -131.5 -415t-348.5 -157q-96 0 -176 29t-131 80v-539h-205v1895h205v-424q56 49 136.5 77.5t170.5 28.5zM639 158q130 0 210.5 105.5t80.5 277.5q0 173 -80.5 280t-210.5 107q-127 0 -209 -84.5t-82 -212.5v-176
q0 -130 81.5 -213.5t209.5 -83.5z" />
    <glyph glyph-name="ydieresis" unicode="&#xff;" horiz-adv-x="1105" 
d="M449 1421v-233h-234v233h234zM891 1421v-233h-234v233h234zM854 1085h231l-548 -1239q-41 -94 -103.5 -133t-169.5 -39q-57 0 -182 23l33 180q88 -14 147 -14q46 0 71.5 17t45.5 63l74 176l-433 966h232l301 -723z" />
    <glyph glyph-name="Amacron" unicode="&#x100;" horiz-adv-x="1431" 
d="M1065 1700v-164h-696v164h696zM1194 0l-150 369h-657l-149 -369h-218l590 1434h211l590 -1434h-217zM463 555h506l-252 621z" />
    <glyph glyph-name="amacron" unicode="&#x101;" horiz-adv-x="1153" 
d="M895 1382v-163h-696v163h696zM1114 184l29 -174q-81 -16 -142 -16q-147 0 -192 131q-45 -66 -136 -105.5t-204 -39.5q-172 0 -279.5 87t-107.5 226q0 135 86.5 213t284.5 121q184 40 246.5 74t62.5 96q0 63 -59 102t-156 39q-116 0 -189 -60.5t-88 -160.5l-188 28
q25 166 153.5 268.5t311.5 102.5q191 0 300 -94t109 -258v-490q0 -102 74 -102q26 0 84 12zM762 369v211q-18 -27 -71 -50.5t-187 -60.5q-131 -37 -179.5 -72.5t-48.5 -93.5q0 -69 50 -107t145 -38q129 0 210 58.5t81 152.5z" />
    <glyph glyph-name="Abreve" unicode="&#x102;" horiz-adv-x="1431" 
d="M717 1516q-122 0 -200.5 73t-78.5 191h135q11 -47 49 -76t95 -29t94.5 29t48.5 76h135q0 -119 -78 -191.5t-200 -72.5zM1194 0l-150 369h-657l-149 -369h-218l590 1434h211l590 -1434h-217zM463 555h506l-252 621z" />
    <glyph glyph-name="abreve" unicode="&#x103;" horiz-adv-x="1153" 
d="M547 1198q-122 0 -200.5 73t-78.5 191h135q11 -47 49 -75.5t95 -28.5t94.5 28.5t48.5 75.5h135q0 -119 -78 -191.5t-200 -72.5zM1114 184l29 -174q-81 -16 -142 -16q-147 0 -192 131q-45 -66 -136 -105.5t-204 -39.5q-172 0 -279.5 87t-107.5 226q0 135 86.5 213
t284.5 121q184 40 246.5 74t62.5 96q0 63 -59 102t-156 39q-116 0 -189 -60.5t-88 -160.5l-188 28q25 166 153.5 268.5t311.5 102.5q191 0 300 -94t109 -258v-490q0 -102 74 -102q26 0 84 12zM762 369v211q-18 -27 -71 -50.5t-187 -60.5q-131 -37 -179.5 -72.5t-48.5 -93.5
q0 -69 50 -107t145 -38q129 0 210 58.5t81 152.5z" />
    <glyph glyph-name="Aogonek" unicode="&#x104;" horiz-adv-x="1431" 
d="M1346 -215l71 -152q-143 -69 -256 -69q-117 0 -186.5 52t-69.5 140q0 86 66 154.5t207 130.5l-134 328h-657l-149 -369h-218l590 1434h211l590 -1434h-119q-122 -71 -169.5 -117.5t-47.5 -95.5q0 -61 86 -61q81 0 185 59zM463 555h506l-252 621z" />
    <glyph glyph-name="aogonek" unicode="&#x105;" horiz-adv-x="1153" 
d="M1130 -215l72 -152q-143 -69 -256 -69q-117 0 -186.5 52t-69.5 140q0 150 215 258q-67 28 -96 111q-45 -66 -136 -105.5t-204 -39.5q-172 0 -279.5 87t-107.5 226q0 135 86.5 213t284.5 121q184 40 246.5 74t62.5 96q0 63 -59 102t-156 39q-116 0 -189 -60.5t-88 -160.5
l-188 28q25 166 153.5 268.5t311.5 102.5q191 0 300 -94t109 -258v-490q0 -102 74 -102q26 0 84 12l29 -174q-40 -9 -68 -12q-120 -69 -167.5 -115.5t-47.5 -95.5q0 -61 86 -61q80 0 184 59zM762 369v211q-18 -27 -71 -50.5t-187 -60.5q-131 -37 -179.5 -72.5t-48.5 -93.5
q0 -69 50 -107t145 -38q129 0 210 58.5t81 152.5z" />
    <glyph glyph-name="Cacute" unicode="&#x106;" horiz-adv-x="1318" 
d="M563 1567l180 272h279l-246 -272h-213zM690 -31q-190 0 -329 97.5t-209 265t-70 385.5t70 385.5t209 264.5t329 97q218 0 371 -129t194 -346l-206 -43q-34 156 -129.5 238t-229.5 82q-188 0 -289.5 -148.5t-101.5 -400.5t101.5 -400.5t289.5 -148.5q137 0 235 86t130 256
l202 -45q-39 -230 -193 -363t-374 -133z" />
    <glyph glyph-name="cacute" unicode="&#x107;" horiz-adv-x="1146" 
d="M471 1219l180 272h279l-246 -272h-213zM598 -31q-223 0 -369.5 159t-146.5 415t146.5 414.5t369.5 158.5q184 0 317 -102.5t170 -272.5l-200 -45q-28 109 -104 170.5t-183 61.5q-137 0 -224 -104.5t-87 -280.5t87 -280.5t224 -104.5q240 0 289 252l198 -45
q-35 -185 -165.5 -290.5t-321.5 -105.5z" />
    <glyph glyph-name="Ccircumflex" unicode="&#x108;" horiz-adv-x="1318" 
d="M690 1708l-143 -182l-150 112l144 181h299l143 -181l-149 -112zM1055 510l202 -45q-39 -230 -193 -363t-374 -133q-190 0 -329 97.5t-209 265t-70 385.5t70 385.5t209 264.5t329 97q218 0 371 -129t194 -346l-206 -43q-34 156 -129.5 238t-229.5 82q-188 0 -289.5 -148.5
t-101.5 -400.5t101.5 -400.5t289.5 -148.5q137 0 235 86t130 256z" />
    <glyph glyph-name="ccircumflex" unicode="&#x109;" horiz-adv-x="1146" 
d="M598 1360l-143 -182l-150 112l144 180h299l143 -180l-150 -112zM598 158q240 0 289 252l198 -45q-35 -185 -165.5 -290.5t-321.5 -105.5q-223 0 -369.5 159t-146.5 415t146.5 414.5t369.5 158.5q184 0 317 -102.5t170 -272.5l-200 -45q-28 109 -104 170.5t-183 61.5
q-137 0 -224 -104.5t-87 -280.5t87 -280.5t224 -104.5z" />
    <glyph glyph-name="Cdotaccent" unicode="&#x10a;" horiz-adv-x="1318" 
d="M567 1567v243h244v-243h-244zM690 -31q-190 0 -329 97.5t-209 265t-70 385.5t70 385.5t209 264.5t329 97q218 0 371 -129t194 -346l-206 -43q-34 156 -129.5 238t-229.5 82q-188 0 -289.5 -148.5t-101.5 -400.5t101.5 -400.5t289.5 -148.5q137 0 235 86t130 256l202 -45
q-39 -230 -193 -363t-374 -133z" />
    <glyph glyph-name="cdotaccent" unicode="&#x10b;" horiz-adv-x="1146" 
d="M475 1219v243h244v-243h-244zM598 -31q-223 0 -369.5 159t-146.5 415t146.5 414.5t369.5 158.5q184 0 317 -102.5t170 -272.5l-200 -45q-28 109 -104 170.5t-183 61.5q-137 0 -224 -104.5t-87 -280.5t87 -280.5t224 -104.5q240 0 289 252l198 -45q-35 -185 -165.5 -290.5
t-321.5 -105.5z" />
    <glyph glyph-name="Ccaron" unicode="&#x10c;" horiz-adv-x="1318" 
d="M840 1567h-299l-144 180l150 113l143 -183l144 183l149 -113zM1055 510l202 -45q-39 -230 -193 -363t-374 -133q-190 0 -329 97.5t-209 265t-70 385.5t70 385.5t209 264.5t329 97q218 0 371 -129t194 -346l-206 -43q-34 156 -129.5 238t-229.5 82q-188 0 -289.5 -148.5
t-101.5 -400.5t101.5 -400.5t289.5 -148.5q137 0 235 86t130 256z" />
    <glyph glyph-name="ccaron" unicode="&#x10d;" horiz-adv-x="1146" 
d="M748 1219h-299l-144 180l150 112l143 -182l143 182l150 -112zM598 158q240 0 289 252l198 -45q-35 -185 -165.5 -290.5t-321.5 -105.5q-223 0 -369.5 159t-146.5 415t146.5 414.5t369.5 158.5q184 0 317 -102.5t170 -272.5l-200 -45q-28 109 -104 170.5t-183 61.5
q-137 0 -224 -104.5t-87 -280.5t87 -280.5t224 -104.5z" />
    <glyph glyph-name="Dcaron" unicode="&#x10e;" horiz-adv-x="1376" 
d="M813 1536h-299l-143 180l149 113l144 -182l143 182l149 -113zM614 1434q322 0 501 -185t179 -532t-179 -532t-501 -185h-450v1434h450zM594 199q239 0 362 126.5t123 391.5t-123 391.5t-362 126.5h-215v-1036h215z" />
    <glyph glyph-name="dcaron" unicode="&#x10f;" horiz-adv-x="1433" 
d="M881 1001v433h204v-1434h-204v84q-54 -53 -134.5 -84t-171.5 -31q-220 0 -356.5 159.5t-136.5 414.5t136.5 414t356.5 159q99 0 178.5 -30.5t127.5 -84.5zM1198 1434h246v-195q0 -102 -62.5 -163.5t-167.5 -69.5v108q38 7 53 27t15 63h-84v230zM592 158q133 0 211 80.5
t78 216.5v176q0 137 -76.5 217t-210.5 80q-144 0 -225.5 -102.5t-81.5 -282.5t81 -282.5t224 -102.5z" />
    <glyph glyph-name="Dcroat" unicode="&#x110;" horiz-adv-x="1427" 
d="M666 1434q322 0 501 -185t179 -532t-179 -532t-501 -185h-451v633h-195v188h195v613h451zM645 199q239 0 362 126.5t123 391.5t-123 391.5t-362 126.5h-215v-414h301v-188h-301v-434h215z" />
    <glyph glyph-name="dcroat" unicode="&#x111;" horiz-adv-x="1239" 
d="M1249 1352v-158h-164v-1194h-204v84q-54 -53 -134.5 -84t-171.5 -31q-220 0 -356.5 159.5t-136.5 414.5t136.5 414t356.5 159q99 0 178.5 -30.5t127.5 -84.5v193h-283v158h283v82h204v-82h164zM592 158q133 0 211 80.5t78 216.5v176q0 137 -76.5 217t-210.5 80
q-144 0 -225.5 -102.5t-81.5 -282.5t81 -282.5t224 -102.5z" />
    <glyph glyph-name="Emacron" unicode="&#x112;" horiz-adv-x="1161" 
d="M281 1536v164h696v-164h-696zM164 0v1434h915v-199h-698v-406h528v-192h-528v-438h698v-199h-915z" />
    <glyph glyph-name="emacron" unicode="&#x113;" horiz-adv-x="1161" 
d="M926 1382v-163h-697v163h697zM283 461q17 -147 94 -229t201 -82q107 0 179.5 51.5t127.5 160.5l159 -100q-63 -135 -182.5 -214t-283.5 -79q-228 0 -362 156.5t-134 417.5t135.5 417t360.5 156q226 0 363.5 -156t137.5 -417v-82h-796zM578 936q-126 0 -207 -83.5
t-88 -227.5h591q-17 153 -94.5 232t-201.5 79z" />
    <glyph glyph-name="Ebreve" unicode="&#x114;" horiz-adv-x="1161" 
d="M629 1516q-122 0 -200.5 73t-78.5 191h135q11 -47 49 -76t95 -29t94.5 29t48.5 76h135q0 -119 -78 -191.5t-200 -72.5zM164 0v1434h915v-199h-698v-406h528v-192h-528v-438h698v-199h-915z" />
    <glyph glyph-name="ebreve" unicode="&#x115;" horiz-adv-x="1161" 
d="M578 1198q-122 0 -200.5 73t-78.5 191h135q11 -47 49 -75.5t95 -28.5t94.5 28.5t48.5 75.5h135q0 -119 -78 -191.5t-200 -72.5zM283 461q17 -147 94 -229t201 -82q107 0 179.5 51.5t127.5 160.5l159 -100q-63 -135 -182.5 -214t-283.5 -79q-228 0 -362 156.5t-134 417.5
t135.5 417t360.5 156q226 0 363.5 -156t137.5 -417v-82h-796zM578 936q-126 0 -207 -83.5t-88 -227.5h591q-17 153 -94.5 232t-201.5 79z" />
    <glyph glyph-name="Edotaccent" unicode="&#x116;" horiz-adv-x="1161" 
d="M506 1536v244h244v-244h-244zM164 0v1434h915v-199h-698v-406h528v-192h-528v-438h698v-199h-915z" />
    <glyph glyph-name="edotaccent" unicode="&#x117;" horiz-adv-x="1161" 
d="M698 1462v-243h-243v243h243zM283 461q17 -147 94 -229t201 -82q107 0 179.5 51.5t127.5 160.5l159 -100q-63 -135 -182.5 -214t-283.5 -79q-228 0 -362 156.5t-134 417.5t135.5 417t360.5 156q226 0 363.5 -156t137.5 -417v-82h-796zM578 936q-126 0 -207 -83.5
t-88 -227.5h591q-17 153 -94.5 232t-201.5 79z" />
    <glyph glyph-name="Eogonek" unicode="&#x118;" horiz-adv-x="1161" 
d="M1055 -215l71 -152q-143 -69 -256 -69q-117 0 -186.5 52t-69.5 140q0 141 189 244h-639v1434h915v-199h-698v-406h528v-192h-528v-438h698v-199h-78q-122 -71 -169.5 -117.5t-47.5 -95.5q0 -61 86 -61q81 0 185 59z" />
    <glyph glyph-name="eogonek" unicode="&#x119;" horiz-adv-x="1161" 
d="M283 461q17 -147 94 -229t201 -82q107 0 179.5 51.5t127.5 160.5l159 -100q-91 -197 -290 -266q-119 -69 -165 -114.5t-46 -94.5q0 -61 86 -61q80 0 184 59l72 -152q-143 -69 -256 -69q-117 0 -186.5 52t-69.5 140q0 124 141 217q-201 22 -316.5 175t-115.5 395
q0 261 135.5 417t360.5 156q226 0 363.5 -156t137.5 -417v-82h-796zM578 936q-126 0 -207 -83.5t-88 -227.5h591q-17 153 -94.5 232t-201.5 79z" />
    <glyph glyph-name="Ecaron" unicode="&#x11a;" horiz-adv-x="1161" 
d="M778 1536h-299l-143 180l149 113l144 -182l143 182l150 -113zM1079 1235h-698v-406h528v-192h-528v-438h698v-199h-915v1434h915v-199z" />
    <glyph glyph-name="ecaron" unicode="&#x11b;" horiz-adv-x="1161" 
d="M727 1219h-299l-143 180l149 112l144 -182l143 182l149 -112zM283 461q17 -147 94 -229t201 -82q107 0 179.5 51.5t127.5 160.5l159 -100q-63 -135 -182.5 -214t-283.5 -79q-228 0 -362 156.5t-134 417.5t135.5 417t360.5 156q226 0 363.5 -156t137.5 -417v-82h-796z
M578 936q-126 0 -207 -83.5t-88 -227.5h591q-17 153 -94.5 232t-201.5 79z" />
    <glyph glyph-name="Gcircumflex" unicode="&#x11c;" horiz-adv-x="1398" 
d="M690 1708l-143 -182l-150 112l144 181h299l143 -181l-149 -112zM608 737h658v-737h-138l-38 135q-146 -166 -400 -166q-190 0 -329 97.5t-209 265t-70 385.5t70 385.5t209 264.5t329 97q217 0 369.5 -128.5t195.5 -346.5l-206 -43q-36 157 -131 238.5t-228 81.5
q-188 0 -289.5 -148.5t-101.5 -400.5t101.5 -400.5t289.5 -148.5q85 0 155 30t113.5 78.5t67 107t23.5 118.5v37h-441v198z" />
    <glyph glyph-name="gcircumflex" unicode="&#x11d;" horiz-adv-x="1163" 
d="M545 1360l-144 -182l-149 112l143 180h299l144 -180l-150 -112zM754 119q83 -10 145 -29t112.5 -52.5t76.5 -87t26 -126.5q0 -150 -137.5 -233t-388.5 -83q-243 0 -385 81t-142 225q0 65 39 129t115 106q-113 67 -113 184q0 126 131 199q-112 112 -112 275
q0 175 130.5 292t334.5 117q114 0 209 -39q35 94 110 157t176 83l52 -170q-170 -30 -218 -143q136 -120 136 -297q0 -175 -131 -292.5t-334 -117.5q-133 0 -238 51q-63 -31 -63 -88q0 -47 45.5 -72.5t154.5 -37.5zM586 938q-118 0 -192.5 -66.5t-74.5 -164.5
q0 -99 74.5 -165.5t192.5 -66.5q117 0 191.5 66.5t74.5 165.5t-74.5 165t-191.5 66zM588 -313q327 0 327 149q0 57 -46.5 84.5t-147.5 38.5l-318 35h-8q-63 -18 -99 -62t-36 -96q0 -73 84.5 -111t243.5 -38z" />
    <glyph glyph-name="Gbreve" unicode="&#x11e;" horiz-adv-x="1398" 
d="M690 1546q-122 0 -200 72.5t-78 191.5h135q11 -47 48.5 -75.5t94.5 -28.5t95 28.5t49 75.5h135q0 -118 -78.5 -191t-200.5 -73zM608 737h658v-737h-138l-38 135q-146 -166 -400 -166q-190 0 -329 97.5t-209 265t-70 385.5t70 385.5t209 264.5t329 97q217 0 369.5 -128.5
t195.5 -346.5l-206 -43q-36 157 -131 238.5t-228 81.5q-188 0 -289.5 -148.5t-101.5 -400.5t101.5 -400.5t289.5 -148.5q85 0 155 30t113.5 78.5t67 107t23.5 118.5v37h-441v198z" />
    <glyph glyph-name="gbreve" unicode="&#x11f;" horiz-adv-x="1163" 
d="M545 1198q-122 0 -200.5 73t-78.5 191h135q11 -47 49 -75.5t95 -28.5t94.5 28.5t48.5 75.5h135q0 -119 -78 -191.5t-200 -72.5zM754 119q83 -10 145 -29t112.5 -52.5t76.5 -87t26 -126.5q0 -150 -137.5 -233t-388.5 -83q-243 0 -385 81t-142 225q0 65 39 129t115 106
q-113 67 -113 184q0 126 131 199q-112 112 -112 275q0 175 130.5 292t334.5 117q114 0 209 -39q35 94 110 157t176 83l52 -170q-170 -30 -218 -143q136 -120 136 -297q0 -175 -131 -292.5t-334 -117.5q-133 0 -238 51q-63 -31 -63 -88q0 -47 45.5 -72.5t154.5 -37.5z
M586 938q-118 0 -192.5 -66.5t-74.5 -164.5q0 -99 74.5 -165.5t192.5 -66.5q117 0 191.5 66.5t74.5 165.5t-74.5 165t-191.5 66zM588 -313q327 0 327 149q0 57 -46.5 84.5t-147.5 38.5l-318 35h-8q-63 -18 -99 -62t-36 -96q0 -73 84.5 -111t243.5 -38z" />
    <glyph glyph-name="Gdotaccent" unicode="&#x120;" horiz-adv-x="1398" 
d="M811 1810v-243h-244v243h244zM608 737h658v-737h-138l-38 135q-146 -166 -400 -166q-190 0 -329 97.5t-209 265t-70 385.5t70 385.5t209 264.5t329 97q217 0 369.5 -128.5t195.5 -346.5l-206 -43q-36 157 -131 238.5t-228 81.5q-188 0 -289.5 -148.5t-101.5 -400.5
t101.5 -400.5t289.5 -148.5q85 0 155 30t113.5 78.5t67 107t23.5 118.5v37h-441v198z" />
    <glyph glyph-name="gdotaccent" unicode="&#x121;" horiz-adv-x="1163" 
d="M666 1462v-243h-244v243h244zM754 119q83 -10 145 -29t112.5 -52.5t76.5 -87t26 -126.5q0 -150 -137.5 -233t-388.5 -83q-243 0 -385 81t-142 225q0 65 39 129t115 106q-113 67 -113 184q0 126 131 199q-112 112 -112 275q0 175 130.5 292t334.5 117q114 0 209 -39
q35 94 110 157t176 83l52 -170q-170 -30 -218 -143q136 -120 136 -297q0 -175 -131 -292.5t-334 -117.5q-133 0 -238 51q-63 -31 -63 -88q0 -47 45.5 -72.5t154.5 -37.5zM586 938q-118 0 -192.5 -66.5t-74.5 -164.5q0 -99 74.5 -165.5t192.5 -66.5q117 0 191.5 66.5
t74.5 165.5t-74.5 165t-191.5 66zM588 -313q327 0 327 149q0 57 -46.5 84.5t-147.5 38.5l-318 35h-8q-63 -18 -99 -62t-36 -96q0 -73 84.5 -111t243.5 -38z" />
    <glyph glyph-name="Gcommaaccent" unicode="&#x122;" horiz-adv-x="1398" 
d="M608 737h658v-737h-138l-38 135q-146 -166 -400 -166q-190 0 -329 97.5t-209 265t-70 385.5t70 385.5t209 264.5t329 97q217 0 369.5 -128.5t195.5 -346.5l-206 -43q-36 157 -131 238.5t-228 81.5q-188 0 -289.5 -148.5t-101.5 -400.5t101.5 -400.5t289.5 -148.5
q85 0 155 30t113.5 78.5t67 107t23.5 118.5v37h-441v198zM567 -362v229h246v-195q0 -102 -62 -163.5t-167 -69.5v108q38 7 52.5 27.5t14.5 63.5h-84z" />
    <glyph glyph-name="gcommaaccent" unicode="&#x123;" horiz-adv-x="1163" 
d="M668 1448v-229h-246v194q0 102 62 164t167 70v-109q-38 -7 -52.5 -27t-14.5 -63h84zM754 119q83 -10 145 -29t112.5 -52.5t76.5 -87t26 -126.5q0 -150 -137.5 -233t-388.5 -83q-243 0 -385 81t-142 225q0 65 39 129t115 106q-113 67 -113 184q0 126 131 199
q-112 112 -112 275q0 175 130.5 292t334.5 117q114 0 209 -39q35 94 110 157t176 83l52 -170q-170 -30 -218 -143q136 -120 136 -297q0 -175 -131 -292.5t-334 -117.5q-133 0 -238 51q-63 -31 -63 -88q0 -47 45.5 -72.5t154.5 -37.5zM586 938q-118 0 -192.5 -66.5
t-74.5 -164.5q0 -99 74.5 -165.5t192.5 -66.5q117 0 191.5 66.5t74.5 165.5t-74.5 165t-191.5 66zM588 -313q327 0 327 149q0 57 -46.5 84.5t-147.5 38.5l-318 35h-8q-63 -18 -99 -62t-36 -96q0 -73 84.5 -111t243.5 -38z" />
    <glyph glyph-name="Hcircumflex" unicode="&#x124;" horiz-adv-x="1390" 
d="M696 1677l-143 -182l-150 113l144 180h299l143 -180l-149 -113zM1010 1434h217v-1434h-217v641h-629v-641h-217v1434h217v-594h629v594z" />
    <glyph glyph-name="hcircumflex" unicode="&#x125;" horiz-adv-x="1249" 
d="M651 1677l-143 -182l-150 113l144 180h299l143 -180l-149 -113zM682 1116q193 0 313.5 -122.5t120.5 -329.5v-664h-205v643q0 285 -270 285q-134 0 -213.5 -80.5t-79.5 -210.5v-637h-205v1434h205v-451q53 61 142 97t192 36z" />
    <glyph glyph-name="Hbar" unicode="&#x126;" horiz-adv-x="1390" 
d="M1380 1221v-179h-153v-1042h-217v641h-629v-641h-217v1042h-154v179h154v213h217v-213h629v213h217v-213h153zM1010 840v202h-629v-202h629z" />
    <glyph glyph-name="hbar" unicode="&#x127;" horiz-adv-x="1249" 
d="M682 1116q193 0 313.5 -122.5t120.5 -329.5v-664h-205v643q0 285 -270 285q-134 0 -213.5 -80.5t-79.5 -210.5v-637h-205v1194h-102v158h102v82h205v-82h344v-158h-344v-211q53 61 142 97t192 36z" />
    <glyph glyph-name="Itilde" unicode="&#x128;" horiz-adv-x="544" 
d="M424 1526q-54 0 -145 41t-121 41q-55 0 -70 -72h-141q5 113 56.5 175.5t143.5 62.5q54 0 144.5 -40t120.5 -40q54 0 69 69h142q-4 -114 -57 -175.5t-142 -61.5zM164 0v1434h217v-1434h-217z" />
    <glyph glyph-name="itilde" unicode="&#x129;" horiz-adv-x="491" 
d="M387 1178q-54 0 -145 41t-121 41q-55 0 -70 -72h-141q5 113 57 175t144 62q54 0 144 -39.5t120 -39.5q54 0 69 69h142q-4 -114 -57 -175.5t-142 -61.5zM143 0v1085h205v-1085h-205z" />
    <glyph glyph-name="Imacron" unicode="&#x12a;" horiz-adv-x="544" 
d="M-66 1536v164h697v-164h-697zM164 0v1434h217v-1434h-217z" />
    <glyph glyph-name="imacron" unicode="&#x12b;" horiz-adv-x="491" 
d="M-31 1188v164h553v-164h-553zM143 0v1085h205v-1085h-205z" />
    <glyph glyph-name="Ibreve" unicode="&#x12c;" horiz-adv-x="544" 
d="M283 1516q-122 0 -200.5 73t-78.5 191h135q11 -47 49 -76t95 -29t94.5 29t48.5 76h135q0 -119 -78 -191.5t-200 -72.5zM164 0v1434h217v-1434h-217z" />
    <glyph glyph-name="ibreve" unicode="&#x12d;" horiz-adv-x="491" 
d="M246 1167q-122 0 -200.5 73t-78.5 192h135q11 -47 49 -76t95 -29t94.5 29t48.5 76h135q0 -119 -78.5 -192t-199.5 -73zM143 0v1085h205v-1085h-205z" />
    <glyph glyph-name="Iogonek" unicode="&#x12e;" horiz-adv-x="544" 
d="M430 -215l72 -152q-143 -69 -256 -69q-117 0 -186.5 52t-69.5 140q0 142 188 244h-14v1434h217v-1434h-4q-122 -71 -169.5 -117.5t-47.5 -95.5q0 -61 86 -61q80 0 184 59z" />
    <glyph glyph-name="iogonek" unicode="&#x12f;" horiz-adv-x="491" 
d="M367 1473v-244h-244v244h244zM397 -215l72 -152q-143 -69 -256 -69q-117 0 -186.5 52t-69.5 140q0 142 188 244h-2v1085h205v-1085h-4q-122 -71 -169.5 -117.5t-47.5 -95.5q0 -61 86 -61q80 0 184 59z" />
    <glyph glyph-name="Idotaccent" unicode="&#x130;" horiz-adv-x="544" 
d="M160 1536v244h243v-244h-243zM164 0v1434h217v-1434h-217z" />
    <glyph glyph-name="dotlessi" unicode="&#x131;" horiz-adv-x="491" 
d="M143 0v1085h205v-1085h-205z" />
    <glyph glyph-name="Jcircumflex" unicode="&#x134;" horiz-adv-x="948" 
d="M469 1677l-143 -182l-150 113l143 180h299l144 -180l-150 -113zM51 1432h744v-857q0 -280 -164 -427.5t-488 -147.5h-92v199h90q238 0 338.5 92.5t100.5 296.5v645h-529v199z" />
    <glyph glyph-name="jcircumflex" unicode="&#x135;" horiz-adv-x="763" 
d="M647 1440l144 -180l-150 -113l-143 182l-144 -182l-149 113l143 180h299zM41 1085h580v-1073q0 -183 -108.5 -292t-283.5 -109q-140 0 -270 47l57 178q110 -37 189 -37q211 0 211 228v870h-375v188z" />
    <glyph glyph-name="Kcommaaccent" unicode="&#x136;" horiz-adv-x="1363" 
d="M733 805l621 -805h-271l-493 653l-209 -235v-418h-217v1434h217v-721l623 721h278zM602 -332v230h246v-195q0 -102 -62.5 -163.5t-167.5 -69.5v108q38 7 53 27t15 63h-84z" />
    <glyph glyph-name="kcommaaccent" unicode="&#x137;" horiz-adv-x="1116" 
d="M641 639l465 -639h-234l-358 510l-166 -180v-330h-205v1434h205v-846l438 497h269zM487 -332v230h246v-195q0 -102 -62 -163.5t-167 -69.5v108q38 7 52.5 27t14.5 63h-84z" />
    <glyph glyph-name="kgreenlandic" unicode="&#x138;" horiz-adv-x="1116" 
d="M872 0l-360 508l-164 -178v-330h-205v1085h205v-497l438 497h269l-414 -446l465 -639h-234z" />
    <glyph glyph-name="Lacute" unicode="&#x139;" horiz-adv-x="1173" 
d="M215 1536l180 272h279l-246 -272h-213zM164 1434h217v-1235h741v-199h-958v1434z" />
    <glyph glyph-name="lacute" unicode="&#x13a;" horiz-adv-x="491" 
d="M119 1536l180 272h279l-246 -272h-213zM143 0v1434h205v-1434h-205z" />
    <glyph glyph-name="Lcommaaccent" unicode="&#x13b;" horiz-adv-x="1173" 
d="M164 1434h217v-1235h741v-199h-958v1434zM578 -530v108q38 7 52.5 27t14.5 63h-84v230h246v-195q0 -102 -62 -163.5t-167 -69.5z" />
    <glyph glyph-name="lcommaaccent" unicode="&#x13c;" horiz-adv-x="491" 
d="M143 0v1434h205v-1434h-205zM139 -530v108q38 7 53 27t15 63h-84v230h246v-195q0 -102 -62.5 -163.5t-167.5 -69.5z" />
    <glyph glyph-name="Lcaron" unicode="&#x13d;" horiz-adv-x="1173" 
d="M164 1434h217v-1235h741v-199h-958v1434zM897 1006v108q38 7 53 27t15 63h-84v230h245v-195q0 -102 -62 -163.5t-167 -69.5z" />
    <glyph glyph-name="lcaron" unicode="&#x13e;" horiz-adv-x="696" 
d="M143 0v1434h205v-1434h-205zM477 1006v108q38 7 53 27t15 63h-84v230h246v-195q0 -102 -62.5 -163.5t-167.5 -69.5z" />
    <glyph glyph-name="Ldot" unicode="&#x13f;" horiz-adv-x="1153" 
d="M164 1434h217v-1235h741v-199h-958v1434zM709 684v244h243v-244h-243z" />
    <glyph glyph-name="ldot" unicode="&#x140;" horiz-adv-x="696" 
d="M143 0v1434h205v-1434h-205zM446 594v285h291v-285h-291z" />
    <glyph glyph-name="Lslash" unicode="&#x141;" horiz-adv-x="1294" 
d="M502 199h741v-199h-958v580l-191 -107l-74 135l265 150v676h217v-562l303 175l80 -142l-383 -215v-491z" />
    <glyph glyph-name="lslash" unicode="&#x142;" horiz-adv-x="698" 
d="M750 1001l-301 -245v-756h-205v612l-203 -168l-92 111l295 250v629h205v-484l200 168z" />
    <glyph glyph-name="Nacute" unicode="&#x143;" horiz-adv-x="1380" 
d="M1018 1808l-246 -272h-213l180 272h279zM1001 1434h216v-1434h-224l-614 1067v-1067h-215v1434h223l614 -1069v1069z" />
    <glyph glyph-name="nacute" unicode="&#x144;" horiz-adv-x="1249" 
d="M983 1491l-246 -272h-213l181 272h278zM682 1116q193 0 313.5 -122.5t120.5 -329.5v-664h-205v643q0 285 -270 285q-134 0 -213.5 -80.5t-79.5 -210.5v-637h-205v1085h205v-102q53 61 142 97t192 36z" />
    <glyph glyph-name="Ncommaaccent" unicode="&#x145;" horiz-adv-x="1380" 
d="M1001 1434h216v-1434h-224l-614 1067v-1067h-215v1434h223l614 -1069v1069zM563 -332v230h246v-195q0 -102 -62 -163.5t-167 -69.5v108q38 7 52.5 27t14.5 63h-84z" />
    <glyph glyph-name="ncommaaccent" unicode="&#x146;" horiz-adv-x="1249" 
d="M682 1116q193 0 313.5 -122.5t120.5 -329.5v-664h-205v643q0 285 -270 285q-134 0 -213.5 -80.5t-79.5 -210.5v-637h-205v1085h205v-102q53 61 142 97t192 36zM487 -332v230h246v-195q0 -102 -62 -163.5t-167 -69.5v108q38 7 52.5 27t14.5 63h-84z" />
    <glyph glyph-name="Ncaron" unicode="&#x147;" horiz-adv-x="1380" 
d="M836 1536h-299l-144 180l150 113l143 -182l143 182l150 -113zM1001 1434h216v-1434h-224l-614 1067v-1067h-215v1434h223l614 -1069v1069z" />
    <glyph glyph-name="ncaron" unicode="&#x148;" horiz-adv-x="1249" 
d="M801 1219h-299l-144 180l150 112l143 -182l144 182l149 -112zM682 1116q193 0 313.5 -122.5t120.5 -329.5v-664h-205v643q0 285 -270 285q-134 0 -213.5 -80.5t-79.5 -210.5v-637h-205v1085h205v-102q53 61 142 97t192 36z" />
    <glyph glyph-name="Eng" unicode="&#x14a;" horiz-adv-x="1380" 
d="M1001 1434h216v-1506q0 -182 -109.5 -285.5t-282.5 -103.5h-104v199h84q93 0 144.5 54t51.5 157v51l-622 1067v-1067h-215v1434h223l614 -1057v1057z" />
    <glyph glyph-name="eng" unicode="&#x14b;" horiz-adv-x="1249" 
d="M682 1116q193 0 313.5 -122.5t120.5 -329.5v-736q0 -169 -105 -279t-266 -110h-114v189h94q83 0 134.5 63t51.5 158v694q0 285 -270 285q-134 0 -213.5 -80.5t-79.5 -210.5v-637h-205v1085h205v-102q53 61 142 97t192 36z" />
    <glyph glyph-name="Omacron" unicode="&#x14c;" horiz-adv-x="1380" 
d="M342 1567v164h696v-164h-696zM690 -31q-190 0 -329 97.5t-209 265t-70 385.5t70 385.5t209 264.5t329 97t329 -97t209 -264.5t70 -385.5t-70 -385.5t-209 -265t-329 -97.5zM690 168q188 0 289.5 148.5t101.5 400.5t-101.5 400.5t-289.5 148.5t-289.5 -148.5
t-101.5 -400.5t101.5 -400.5t289.5 -148.5z" />
    <glyph glyph-name="omacron" unicode="&#x14d;" horiz-adv-x="1187" 
d="M246 1219v163h696v-163h-696zM594 -31q-232 0 -372 156.5t-140 417.5t140 417t372 156t372 -156t140 -417t-140 -417.5t-372 -156.5zM594 158q145 0 226 103t81 282t-81 282t-226 103t-226 -103t-81 -282t81 -282t226 -103z" />
    <glyph glyph-name="Obreve" unicode="&#x14e;" horiz-adv-x="1380" 
d="M690 1546q-122 0 -200 72.5t-78 191.5h135q11 -47 48.5 -75.5t94.5 -28.5t95 28.5t49 75.5h135q0 -118 -78.5 -191t-200.5 -73zM690 -31q-190 0 -329 97.5t-209 265t-70 385.5t70 385.5t209 264.5t329 97t329 -97t209 -264.5t70 -385.5t-70 -385.5t-209 -265t-329 -97.5z
M690 168q188 0 289.5 148.5t101.5 400.5t-101.5 400.5t-289.5 148.5t-289.5 -148.5t-101.5 -400.5t101.5 -400.5t289.5 -148.5z" />
    <glyph glyph-name="obreve" unicode="&#x14f;" horiz-adv-x="1187" 
d="M594 1198q-122 0 -200.5 73t-78.5 191h136q11 -47 48.5 -75.5t94.5 -28.5t94.5 28.5t48.5 75.5h135q0 -119 -78 -191.5t-200 -72.5zM594 -31q-232 0 -372 156.5t-140 417.5t140 417t372 156t372 -156t140 -417t-140 -417.5t-372 -156.5zM594 158q145 0 226 103t81 282
t-81 282t-226 103t-226 -103t-81 -282t81 -282t226 -103z" />
    <glyph glyph-name="Ohungarumlaut" unicode="&#x150;" horiz-adv-x="1380" 
d="M369 1567l172 260h264l-234 -260h-202zM739 1567l172 260h265l-234 -260h-203zM690 -31q-190 0 -329 97.5t-209 265t-70 385.5t70 385.5t209 264.5t329 97t329 -97t209 -264.5t70 -385.5t-70 -385.5t-209 -265t-329 -97.5zM690 168q188 0 289.5 148.5t101.5 400.5
t-101.5 400.5t-289.5 148.5t-289.5 -148.5t-101.5 -400.5t101.5 -400.5t289.5 -148.5z" />
    <glyph glyph-name="ohungarumlaut" unicode="&#x151;" horiz-adv-x="1187" 
d="M272 1219l172 260h265l-234 -260h-203zM643 1219l172 260h264l-233 -260h-203zM594 -31q-232 0 -372 156.5t-140 417.5t140 417t372 156t372 -156t140 -417t-140 -417.5t-372 -156.5zM594 158q145 0 226 103t81 282t-81 282t-226 103t-226 -103t-81 -282t81 -282
t226 -103z" />
    <glyph glyph-name="OE" unicode="&#x152;" horiz-adv-x="1867" 
d="M1786 1235h-598v-385h530v-193h-530v-458h598v-199h-813v72q-127 -103 -309 -103q-169 0 -299.5 86.5t-206.5 257.5t-76 404q0 175 43.5 317t121.5 236t184.5 144t232.5 50q183 0 309 -102v72h813v-199zM664 168q200 0 309 162v774q-109 162 -309 162
q-166 0 -265.5 -140.5t-99.5 -408.5t99.5 -408.5t265.5 -140.5z" />
    <glyph glyph-name="oe" unicode="&#x153;" horiz-adv-x="1984" 
d="M1106 461q17 -147 94 -229t201 -82q107 0 179.5 51.5t127.5 160.5l160 -100q-63 -135 -183 -214t-284 -79q-262 0 -397 205q-68 -99 -173 -152t-237 -53q-232 0 -372 156.5t-140 417.5t140 417t372 156q132 0 237.5 -53.5t172.5 -151.5q65 98 167 151.5t230 53.5
q226 0 364 -156t138 -417v-82h-797zM1401 936q-126 0 -207 -83.5t-88 -227.5h592q-17 153 -95 232t-202 79zM594 158q145 0 226 103t81 282t-81 282t-226 103t-226 -103t-81 -282t81 -282t226 -103z" />
    <glyph glyph-name="Racute" unicode="&#x154;" horiz-adv-x="1318" 
d="M991 1808l-246 -272h-213l181 272h278zM1122 379l115 -379h-260l-86 332q-33 124 -120 193t-216 69h-174v-594h-217v1434h604q206 0 331.5 -117t125.5 -303q0 -145 -79 -251t-216 -147q138 -56 192 -237zM381 793h367q125 0 193.5 56t68.5 165t-68.5 165t-193.5 56h-367
v-442z" />
    <glyph glyph-name="racute" unicode="&#x155;" horiz-adv-x="813" 
d="M791 1491l-246 -272h-213l180 272h279zM582 1116q109 0 221 -63l-86 -179q-97 54 -170 54q-92 0 -145.5 -67t-53.5 -187v-674h-205v1085h195v-98q28 57 95 93t149 36z" />
    <glyph glyph-name="Rcommaaccent" unicode="&#x156;" horiz-adv-x="1318" 
d="M1122 379l115 -379h-260l-86 332q-33 124 -120 193t-216 69h-174v-594h-217v1434h604q206 0 331.5 -117t125.5 -303q0 -145 -79 -251t-216 -147q138 -56 192 -237zM381 793h367q125 0 193.5 56t68.5 165t-68.5 165t-193.5 56h-367v-442zM557 -332v230h246v-195
q0 -102 -62.5 -163.5t-167.5 -69.5v108q38 7 53 27t15 63h-84z" />
    <glyph glyph-name="rcommaaccent" unicode="&#x157;" horiz-adv-x="813" 
d="M582 1116q109 0 221 -63l-86 -179q-97 54 -170 54q-92 0 -145.5 -67t-53.5 -187v-674h-205v1085h195v-98q28 57 95 93t149 36zM137 -332v230h246v-195q0 -102 -62 -163.5t-167 -69.5v108q38 7 52.5 27t14.5 63h-84z" />
    <glyph glyph-name="Rcaron" unicode="&#x158;" horiz-adv-x="1318" 
d="M809 1536h-299l-143 180l149 113l143 -182l144 182l149 -113zM1122 379l115 -379h-260l-86 332q-33 124 -120 193t-216 69h-174v-594h-217v1434h604q206 0 331.5 -117t125.5 -303q0 -145 -79 -251t-216 -147q138 -56 192 -237zM381 793h367q125 0 193.5 56t68.5 165
t-68.5 165t-193.5 56h-367v-442z" />
    <glyph glyph-name="rcaron" unicode="&#x159;" horiz-adv-x="813" 
d="M608 1219h-299l-143 180l149 112l144 -182l143 182l150 -112zM582 1116q109 0 221 -63l-86 -179q-97 54 -170 54q-92 0 -145.5 -67t-53.5 -187v-674h-205v1085h195v-98q28 57 95 93t149 36z" />
    <glyph glyph-name="Sacute" unicode="&#x15a;" horiz-adv-x="1286" 
d="M489 1567l181 272h278l-246 -272h-213zM670 -31q-258 0 -425 132.5t-204 367.5l213 33q28 -161 135.5 -247.5t280.5 -86.5q340 0 340 238q0 62 -33.5 102t-115 73.5t-245.5 75.5q-268 70 -379.5 162.5t-111.5 243.5q0 179 136.5 290t356.5 111q215 0 375 -119.5
t197 -308.5l-213 -39q-25 120 -124.5 194.5t-234.5 74.5q-126 0 -201 -55.5t-75 -147.5q0 -54 32.5 -88.5t115 -67.5t253.5 -78q257 -68 367.5 -164.5t114.5 -258.5q4 -201 -145.5 -319t-409.5 -118z" />
    <glyph glyph-name="sacute" unicode="&#x15b;" horiz-adv-x="1105" 
d="M397 1219l181 272h278l-246 -272h-213zM586 -31q-217 0 -362 105t-173 282l187 41q19 -116 112.5 -183t235.5 -67q127 0 195.5 39t68.5 111q0 47 -26.5 75.5t-93 50.5t-195.5 44q-228 37 -324 109.5t-96 211.5q0 141 117 234.5t292 93.5t312 -96t168 -242l-185 -47
q-22 91 -105 150t-190 59q-91 0 -153 -43t-62 -106q0 -41 25.5 -66t92 -45.5t196.5 -42.5q224 -37 322.5 -114t98.5 -222q0 -154 -123 -243t-335 -89z" />
    <glyph glyph-name="Scircumflex" unicode="&#x15c;" horiz-adv-x="1286" 
d="M616 1708l-143 -182l-149 112l143 181h299l143 -181l-149 -112zM1225 406q4 -201 -145.5 -319t-409.5 -118q-258 0 -425 132.5t-204 367.5l213 33q28 -161 135.5 -247.5t280.5 -86.5q340 0 340 238q0 62 -33.5 102t-115 73.5t-245.5 75.5q-268 70 -379.5 162.5
t-111.5 243.5q0 179 136.5 290t356.5 111q215 0 375 -119.5t197 -308.5l-213 -39q-25 120 -124.5 194.5t-234.5 74.5q-126 0 -201 -55.5t-75 -147.5q0 -54 32.5 -88.5t115 -67.5t253.5 -78q257 -68 367.5 -164.5t114.5 -258.5z" />
    <glyph glyph-name="scircumflex" unicode="&#x15d;" horiz-adv-x="1105" 
d="M524 1360l-143 -182l-150 112l144 180h299l143 -180l-149 -112zM623 637q224 -37 322.5 -114t98.5 -222q0 -154 -123 -243t-335 -89q-217 0 -362 105t-173 282l187 41q19 -116 112.5 -183t235.5 -67q127 0 195.5 39t68.5 111q0 47 -26.5 75.5t-93 50.5t-195.5 44
q-228 37 -324 109.5t-96 211.5q0 141 117 234.5t292 93.5t312 -96t168 -242l-185 -47q-22 91 -105 150t-190 59q-91 0 -153 -43t-62 -106q0 -41 25.5 -66t92 -45.5t196.5 -42.5z" />
    <glyph glyph-name="Scedilla" unicode="&#x15e;" horiz-adv-x="1286" 
d="M1225 406q4 -191 -132.5 -307.5t-375.5 -127.5l-60 -100q30 6 64 6q90 0 151.5 -50t61.5 -126q0 -98 -67.5 -158.5t-182.5 -60.5q-88 0 -157.5 37.5t-104.5 103.5l121 80q28 -45 59.5 -63.5t81.5 -18.5q49 0 75.5 22t24.5 58q-2 33 -27.5 51.5t-72.5 18.5t-100 -33
l-111 59l102 176q-221 25 -360.5 154t-173.5 342l213 33q28 -161 135.5 -247.5t280.5 -86.5q340 0 340 238q0 62 -33.5 102t-115 73.5t-245.5 75.5q-268 70 -379.5 162.5t-111.5 243.5q0 179 136.5 290t356.5 111q215 0 375 -119.5t197 -308.5l-213 -39
q-25 120 -124.5 194.5t-234.5 74.5q-126 0 -201 -55.5t-75 -147.5q0 -54 32.5 -88.5t115 -67.5t253.5 -78q257 -68 367.5 -164.5t114.5 -258.5z" />
    <glyph glyph-name="scedilla" unicode="&#x15f;" horiz-adv-x="1105" 
d="M1044 301q0 -145 -110 -233t-301 -97l-60 -100q30 6 64 6q90 0 151.5 -50t61.5 -126q0 -98 -67.5 -158.5t-182.5 -60.5q-88 0 -157.5 37.5t-104.5 103.5l121 80q28 -45 59.5 -63.5t81.5 -18.5q49 0 75.5 22t24.5 58q-2 33 -27.5 51.5t-72.5 18.5t-100 -33l-111 59
l103 178q-181 22 -298.5 123.5t-142.5 257.5l187 41q19 -116 112.5 -183t235.5 -67q127 0 195.5 39t68.5 111q0 47 -26.5 75.5t-93 50.5t-195.5 44q-228 37 -324 109.5t-96 211.5q0 141 117 234.5t292 93.5t312 -96t168 -242l-185 -47q-22 91 -105 150t-190 59
q-91 0 -153 -43t-62 -106q0 -41 25.5 -66t92 -45.5t196.5 -42.5q224 -37 322.5 -114t98.5 -222z" />
    <glyph glyph-name="Scaron" unicode="&#x160;" horiz-adv-x="1286" 
d="M766 1567h-299l-143 180l149 113l143 -183l144 183l149 -113zM1225 406q4 -201 -145.5 -319t-409.5 -118q-258 0 -425 132.5t-204 367.5l213 33q28 -161 135.5 -247.5t280.5 -86.5q340 0 340 238q0 62 -33.5 102t-115 73.5t-245.5 75.5q-268 70 -379.5 162.5
t-111.5 243.5q0 179 136.5 290t356.5 111q215 0 375 -119.5t197 -308.5l-213 -39q-25 120 -124.5 194.5t-234.5 74.5q-126 0 -201 -55.5t-75 -147.5q0 -54 32.5 -88.5t115 -67.5t253.5 -78q257 -68 367.5 -164.5t114.5 -258.5z" />
    <glyph glyph-name="scaron" unicode="&#x161;" horiz-adv-x="1105" 
d="M674 1219h-299l-144 180l150 112l143 -182l144 182l149 -112zM623 637q224 -37 322.5 -114t98.5 -222q0 -154 -123 -243t-335 -89q-217 0 -362 105t-173 282l187 41q19 -116 112.5 -183t235.5 -67q127 0 195.5 39t68.5 111q0 47 -26.5 75.5t-93 50.5t-195.5 44
q-228 37 -324 109.5t-96 211.5q0 141 117 234.5t292 93.5t312 -96t168 -242l-185 -47q-22 91 -105 150t-190 59q-91 0 -153 -43t-62 -106q0 -41 25.5 -66t92 -45.5t196.5 -42.5z" />
    <glyph glyph-name="uni0162" unicode="&#x162;" horiz-adv-x="1265" 
d="M741 0h-63l-57 -98q30 6 63 6q90 0 151.5 -50t61.5 -126q0 -98 -67.5 -158.5t-182.5 -60.5q-88 0 -157.5 37.5t-104.5 103.5l121 80q28 -45 59.5 -63.5t81.5 -18.5q49 0 76 22t25 58q-2 33 -28 51t-73 18q-49 0 -100 -32l-111 59l99 172h-11v1235h-493v199h1204v-199
h-494v-1235z" />
    <glyph glyph-name="uni0163" unicode="&#x163;" horiz-adv-x="856" 
d="M594 -123q90 0 151.5 -50t61.5 -126q0 -98 -67.5 -158.5t-182.5 -60.5q-88 0 -157.5 37.5t-104.5 103.5l121 80q28 -45 59.5 -63.5t81.5 -18.5q49 0 75.5 22t24.5 58q-2 33 -27.5 51.5t-72.5 18.5t-100 -33l-111 59l111 191q-90 31 -142.5 104.5t-52.5 173.5v631h-252
v188h252v287l205 62v-349h336v-188h-336v-608q0 -63 30.5 -97t86.5 -34q49 0 91.5 9t115.5 36l55 -185q-144 -46 -258 -49l-58 -98q30 6 64 6z" />
    <glyph glyph-name="Tcaron" unicode="&#x164;" horiz-adv-x="1265" 
d="M780 1536h-299l-143 180l149 113l144 -182l143 182l150 -113zM31 1434h1204v-199h-494v-1235h-217v1235h-493v199z" />
    <glyph glyph-name="tcaron" unicode="&#x165;" horiz-adv-x="856" 
d="M602 1206v109q38 7 53 27t15 63h-84v229h245v-194q0 -102 -62 -164t-167 -70zM262 1372l205 62v-349h336v-188h-336v-608q0 -63 30.5 -97t86.5 -34q49 0 91.5 9t115.5 36l55 -185q-89 -29 -147 -39t-126 -10q-138 0 -224.5 82.5t-86.5 214.5v631h-252v188h252v287z" />
    <glyph glyph-name="Tbar" unicode="&#x166;" horiz-adv-x="1286" 
d="M1235 1235h-494v-416h322v-178h-322v-641h-217v641h-321v178h321v416h-493v199h1204v-199z" />
    <glyph glyph-name="tbar" unicode="&#x167;" horiz-adv-x="856" 
d="M791 203l55 -185q-89 -29 -147 -39t-126 -10q-138 0 -224.5 82.5t-86.5 214.5v223h-252v175h252v233h-252v188h252v287l205 62v-349h336v-188h-336v-233h334v-175h-334v-200q0 -63 30.5 -97t86.5 -34q49 0 91.5 9t115.5 36z" />
    <glyph glyph-name="Utilde" unicode="&#x168;" horiz-adv-x="1445" 
d="M864 1526q-54 0 -145 41t-121 41q-55 0 -70 -72h-141q5 113 57 175.5t144 62.5q54 0 144 -40t120 -40q55 0 70 69h141q-4 -114 -57 -175.5t-142 -61.5zM725 -31q-166 0 -294 61.5t-202.5 185.5t-74.5 294v924h217v-912q0 -179 94 -266.5t260 -87.5q164 0 258 87.5
t94 266.5v912h215v-924q0 -170 -74 -293.5t-201 -185.5t-292 -62z" />
    <glyph glyph-name="utilde" unicode="&#x169;" horiz-adv-x="1206" 
d="M479 1260q-54 0 -69 -72h-142q5 113 57 175t144 62q54 0 144 -39.5t120 -39.5q55 0 70 69h141q-4 -114 -57 -175.5t-142 -61.5q-54 0 -145 41t-121 41zM858 1085h205v-1085h-201v106q-50 -62 -129.5 -99.5t-167.5 -37.5q-195 0 -313.5 126.5t-118.5 326.5v663h205v-624
q0 -303 252 -303q124 0 196 83t72 226v618z" />
    <glyph glyph-name="Umacron" unicode="&#x16a;" horiz-adv-x="1445" 
d="M375 1536v164h696v-164h-696zM725 -31q-166 0 -294 61.5t-202.5 185.5t-74.5 294v924h217v-912q0 -179 94 -266.5t260 -87.5q164 0 258 87.5t94 266.5v912h215v-924q0 -170 -74 -293.5t-201 -185.5t-292 -62z" />
    <glyph glyph-name="umacron" unicode="&#x16b;" horiz-adv-x="1206" 
d="M952 1352v-164h-696v164h696zM858 1085h205v-1085h-201v106q-50 -62 -129.5 -99.5t-167.5 -37.5q-195 0 -313.5 126.5t-118.5 326.5v663h205v-624q0 -303 252 -303q124 0 196 83t72 226v618z" />
    <glyph glyph-name="Ubreve" unicode="&#x16c;" horiz-adv-x="1445" 
d="M723 1516q-122 0 -200.5 73t-78.5 191h136q11 -47 48.5 -76t94.5 -29t94.5 29t48.5 76h135q0 -119 -78 -191.5t-200 -72.5zM725 -31q-166 0 -294 61.5t-202.5 185.5t-74.5 294v924h217v-912q0 -179 94 -266.5t260 -87.5q164 0 258 87.5t94 266.5v912h215v-924
q0 -170 -74 -293.5t-201 -185.5t-292 -62z" />
    <glyph glyph-name="ubreve" unicode="&#x16d;" horiz-adv-x="1206" 
d="M604 1167q-121 0 -199.5 73t-78.5 192h135q11 -47 48.5 -76t94.5 -29t95 29t49 76h135q0 -119 -78.5 -192t-200.5 -73zM858 1085h205v-1085h-201v106q-50 -62 -129.5 -99.5t-167.5 -37.5q-195 0 -313.5 126.5t-118.5 326.5v663h205v-624q0 -303 252 -303q124 0 196 83
t72 226v618z" />
    <glyph glyph-name="Uring" unicode="&#x16e;" horiz-adv-x="1445" 
d="M723 1516q-115 0 -187.5 64.5t-72.5 166.5t72.5 166.5t187.5 64.5t187.5 -64.5t72.5 -166.5t-72.5 -166.5t-187.5 -64.5zM723 1638q49 0 77.5 30.5t28.5 78.5t-28.5 78t-77.5 30t-78 -30t-29 -78t29 -78.5t78 -30.5zM725 -31q-166 0 -294 61.5t-202.5 185.5t-74.5 294
v924h217v-912q0 -179 94 -266.5t260 -87.5q164 0 258 87.5t94 266.5v912h215v-924q0 -170 -74 -293.5t-201 -185.5t-292 -62z" />
    <glyph glyph-name="uring" unicode="&#x16f;" horiz-adv-x="1206" 
d="M604 1167q-115 0 -187.5 65t-72.5 167t72.5 166.5t187.5 64.5t187.5 -64.5t72.5 -166.5t-72.5 -167t-187.5 -65zM604 1507q-49 0 -77.5 -30t-28.5 -78t28.5 -78.5t77.5 -30.5t78 30.5t29 78.5t-29 78t-78 30zM858 1085h205v-1085h-201v106q-50 -62 -129.5 -99.5
t-167.5 -37.5q-195 0 -313.5 126.5t-118.5 326.5v663h205v-624q0 -303 252 -303q124 0 196 83t72 226v618z" />
    <glyph glyph-name="Uhungarumlaut" unicode="&#x170;" horiz-adv-x="1445" 
d="M401 1536l172 260h265l-234 -260h-203zM772 1536l172 260h264l-233 -260h-203zM725 -31q-166 0 -294 61.5t-202.5 185.5t-74.5 294v924h217v-912q0 -179 94 -266.5t260 -87.5q164 0 258 87.5t94 266.5v912h215v-924q0 -170 -74 -293.5t-201 -185.5t-292 -62z" />
    <glyph glyph-name="uhungarumlaut" unicode="&#x171;" horiz-adv-x="1206" 
d="M719 1448l-234 -260h-202l172 260h264zM856 1188h-203l172 260h265zM858 467v618h205v-1085h-201v106q-50 -62 -129.5 -99.5t-167.5 -37.5q-195 0 -313.5 126.5t-118.5 326.5v663h205v-624q0 -303 252 -303q124 0 196 83t72 226z" />
    <glyph glyph-name="Uogonek" unicode="&#x172;" horiz-adv-x="1445" 
d="M1077 1434h215v-924q0 -199 -98 -331t-268 -183q-119 -69 -165 -114.5t-46 -94.5q0 -61 86 -61q80 0 184 59l72 -152q-143 -69 -256 -69q-117 0 -186.5 52t-69.5 140q0 124 139 215q-238 11 -384 152.5t-146 386.5v924h217v-912q0 -179 94 -266.5t260 -87.5
q164 0 258 87.5t94 266.5v912z" />
    <glyph glyph-name="uogonek" unicode="&#x173;" horiz-adv-x="1206" 
d="M1112 -215l72 -152q-143 -69 -256 -69q-117 0 -186.5 52t-69.5 140q0 142 190 246v104q-50 -62 -129.5 -99.5t-167.5 -37.5q-195 0 -313.5 126.5t-118.5 326.5v663h205v-624q0 -303 252 -303q124 0 196 83t72 226v618h205v-1085h-4q-122 -71 -169.5 -117.5t-47.5 -95.5
q0 -61 86 -61q80 0 184 59z" />
    <glyph glyph-name="Wcircumflex" unicode="&#x174;" horiz-adv-x="1636" 
d="M823 1677l-143 -182l-150 113l144 180h299l143 -180l-149 -113zM1341 1434h213l-213 -1434h-225l-297 817l-299 -817h-225l-213 1434h213l156 -1090l299 834h137l299 -834z" />
    <glyph glyph-name="wcircumflex" unicode="&#x175;" horiz-adv-x="1542" 
d="M754 1329l-144 -182l-149 113l143 180h299l144 -180l-150 -113zM1331 1085h191l-277 -1085h-229l-246 778l-244 -778h-229l-277 1085h189l213 -839l264 839h170l262 -839z" />
    <glyph glyph-name="Ycircumflex" unicode="&#x176;" horiz-adv-x="1271" 
d="M637 1677l-143 -182l-150 113l143 180h299l144 -180l-150 -113zM1010 1434h252l-519 -832v-602h-215v602l-518 832h252l375 -623z" />
    <glyph glyph-name="ycircumflex" unicode="&#x177;" horiz-adv-x="1105" 
d="M553 1329l-143 -182l-150 113l143 180h299l144 -180l-150 -113zM854 1085h231l-548 -1239q-41 -94 -103.5 -133t-169.5 -39q-57 0 -182 23l33 180q88 -14 147 -14q46 0 71.5 17t45.5 63l74 176l-433 966h232l301 -723z" />
    <glyph glyph-name="Ydieresis" unicode="&#x178;" horiz-adv-x="1271" 
d="M532 1769v-233h-233v233h233zM975 1769v-233h-234v233h234zM1010 1434h252l-519 -832v-602h-215v602l-518 832h252l375 -623z" />
    <glyph glyph-name="Zacute" unicode="&#x179;" horiz-adv-x="1255" 
d="M502 1536l180 272h279l-246 -272h-213zM72 0v182l852 1061h-822v191h1082v-181l-852 -1063h844v-190h-1104z" />
    <glyph glyph-name="zacute" unicode="&#x17a;" horiz-adv-x="1150" 
d="M449 1188l180 272h278l-245 -272h-213zM102 0v166l672 743h-651v176h907v-165l-672 -744h691v-176h-947z" />
    <glyph glyph-name="Zdotaccent" unicode="&#x17b;" horiz-adv-x="1255" 
d="M506 1536v244h244v-244h-244zM72 0v182l852 1061h-822v191h1082v-181l-852 -1063h844v-190h-1104z" />
    <glyph glyph-name="zdotaccent" unicode="&#x17c;" horiz-adv-x="1150" 
d="M453 1229v244h243v-244h-243zM102 0v166l672 743h-651v176h907v-165l-672 -744h691v-176h-947z" />
    <glyph glyph-name="Zcaron" unicode="&#x17d;" horiz-adv-x="1255" 
d="M778 1536h-299l-143 180l149 113l144 -182l143 182l150 -113zM1184 1434v-181l-852 -1063h844v-190h-1104v182l852 1061h-822v191h1082z" />
    <glyph glyph-name="zcaron" unicode="&#x17e;" horiz-adv-x="1150" 
d="M725 1188h-299l-143 180l149 113l143 -183l144 183l149 -113zM358 176h691v-176h-947v166l672 743h-651v176h907v-165z" />
    <glyph glyph-name="longs" unicode="&#x17f;" horiz-adv-x="847" 
d="M262 0v897h-252v188h252v125q0 124 80 200.5t213 76.5q135 0 293 -94l-86 -162q-70 38 -113 52.5t-84 14.5q-47 0 -72.5 -25.5t-25.5 -72.5v-1200h-205z" />
    <glyph glyph-name="uni018E" unicode="&#x18e;" horiz-adv-x="1161" 
d="M997 0h-915v199h698v438h-528v192h528v406h-698v199h915v-1434z" />
    <glyph glyph-name="uni018F" unicode="&#x18f;" horiz-adv-x="1347" 
d="M657 1464q190 0 329.5 -97t209.5 -265t70 -385t-70 -385t-209.5 -265.5t-329.5 -97.5q-148 0 -258.5 52t-179.5 151t-103 235t-34 310v71h965q-14 222 -114.5 350t-275.5 128q-131 0 -223 -77t-131 -224l-207 45q47 205 196.5 329.5t364.5 124.5zM657 168
q162 0 260.5 112.5t122.5 309.5h-739q15 -201 103.5 -311.5t252.5 -110.5z" />
    <glyph glyph-name="florin" unicode="&#x192;" 
d="M913 1235q-54 0 -79.5 -21t-34.5 -75l-29 -160h377v-197h-410l-159 -901q-49 -262 -332 -262h-123v199h129q54 0 80 21t35 75l153 868h-313v197h346l35 192q49 263 332 263h227v-199h-234z" />
    <glyph glyph-name="uni01CD" unicode="&#x1cd;" horiz-adv-x="1431" 
d="M866 1536h-299l-143 180l149 113l144 -182l143 182l150 -113zM1194 0l-150 369h-657l-149 -369h-218l590 1434h211l590 -1434h-217zM463 555h506l-252 621z" />
    <glyph glyph-name="uni01CE" unicode="&#x1ce;" horiz-adv-x="1153" 
d="M696 1219h-299l-143 180l149 112l144 -182l143 182l150 -112zM1114 184l29 -174q-81 -16 -142 -16q-147 0 -192 131q-45 -66 -136 -105.5t-204 -39.5q-172 0 -279.5 87t-107.5 226q0 135 86.5 213t284.5 121q184 40 246.5 74t62.5 96q0 63 -59 102t-156 39
q-116 0 -189 -60.5t-88 -160.5l-188 28q25 166 153.5 268.5t311.5 102.5q191 0 300 -94t109 -258v-490q0 -102 74 -102q26 0 84 12zM762 369v211q-18 -27 -71 -50.5t-187 -60.5q-131 -37 -179.5 -72.5t-48.5 -93.5q0 -69 50 -107t145 -38q129 0 210 58.5t81 152.5z" />
    <glyph glyph-name="uni01CF" unicode="&#x1cf;" horiz-adv-x="544" 
d="M426 1829l149 -113l-143 -180h-299l-143 180l149 113l144 -182zM164 0v1434h217v-1434h-217z" />
    <glyph glyph-name="uni01D0" unicode="&#x1d0;" horiz-adv-x="491" 
d="M389 1481l150 -113l-144 -180h-299l-143 180l149 113l144 -183zM143 0v1085h205v-1085h-205z" />
    <glyph glyph-name="uni01D1" unicode="&#x1d1;" horiz-adv-x="1380" 
d="M840 1567h-299l-144 180l150 113l143 -183l144 183l149 -113zM690 1464q190 0 329 -97t209 -264.5t70 -385.5t-70 -385.5t-209 -265t-329 -97.5t-329 97.5t-209 265t-70 385.5t70 385.5t209 264.5t329 97zM690 168q188 0 289.5 148.5t101.5 400.5t-101.5 400.5
t-289.5 148.5t-289.5 -148.5t-101.5 -400.5t101.5 -400.5t289.5 -148.5z" />
    <glyph glyph-name="uni01D2" unicode="&#x1d2;" horiz-adv-x="1187" 
d="M743 1219h-299l-143 180l150 112l143 -182l143 182l150 -112zM594 1116q232 0 372 -156t140 -417t-140 -417.5t-372 -156.5t-372 156.5t-140 417.5t140 417t372 156zM594 158q145 0 226 103t81 282t-81 282t-226 103t-226 -103t-81 -282t81 -282t226 -103z" />
    <glyph glyph-name="uni01D3" unicode="&#x1d3;" horiz-adv-x="1445" 
d="M872 1536h-299l-143 180l150 113l143 -182l143 182l150 -113zM1077 1434h215v-924q0 -170 -74 -293.5t-201 -185.5t-292 -62q-166 0 -294 61.5t-202.5 185.5t-74.5 294v924h217v-912q0 -179 94 -266.5t260 -87.5q164 0 258 87.5t94 266.5v912z" />
    <glyph glyph-name="uni01D4" unicode="&#x1d4;" horiz-adv-x="1206" 
d="M754 1188h-299l-144 180l150 113l143 -183l144 183l149 -113zM858 1085h205v-1085h-201v106q-50 -62 -129.5 -99.5t-167.5 -37.5q-195 0 -313.5 126.5t-118.5 326.5v663h205v-624q0 -303 252 -303q124 0 196 83t72 226v618z" />
    <glyph glyph-name="uni01D5" unicode="&#x1d5;" horiz-adv-x="1445" 
d="M375 1829v164h696v-164h-696zM385 1536v233h233v-233h-233zM827 1536v233h234v-233h-234zM725 -31q-166 0 -294 61.5t-202.5 185.5t-74.5 294v924h217v-912q0 -179 94 -266.5t260 -87.5q164 0 258 87.5t94 266.5v912h215v-924q0 -170 -74 -293.5t-201 -185.5t-292 -62z
" />
    <glyph glyph-name="uni01D6" unicode="&#x1d6;" horiz-adv-x="1206" 
d="M952 1645v-164h-696v164h696zM500 1188h-234v233h234v-233zM942 1188h-233v233h233v-233zM858 1085h205v-1085h-201v106q-50 -62 -129.5 -99.5t-167.5 -37.5q-195 0 -313.5 126.5t-118.5 326.5v663h205v-624q0 -303 252 -303q124 0 196 83t72 226v618z" />
    <glyph glyph-name="uni01D7" unicode="&#x1d7;" horiz-adv-x="1445" 
d="M596 1829l180 272h279l-246 -272h-213zM385 1536v233h233v-233h-233zM827 1536v233h234v-233h-234zM725 -31q-166 0 -294 61.5t-202.5 185.5t-74.5 294v924h217v-912q0 -179 94 -266.5t260 -87.5q164 0 258 87.5t94 266.5v912h215v-924q0 -170 -74 -293.5t-201 -185.5
t-292 -62z" />
    <glyph glyph-name="uni01D8" unicode="&#x1d8;" horiz-adv-x="1206" 
d="M936 1753l-246 -272h-213l180 272h279zM500 1421v-233h-234v233h234zM709 1188v233h233v-233h-233zM858 1085h205v-1085h-201v106q-50 -62 -129.5 -99.5t-167.5 -37.5q-195 0 -313.5 126.5t-118.5 326.5v663h205v-624q0 -303 252 -303q124 0 196 83t72 226v618z" />
    <glyph glyph-name="uni01D9" unicode="&#x1d9;" horiz-adv-x="1445" 
d="M872 1829h-299l-143 180l150 113l143 -183l143 183l150 -113zM618 1769v-233h-233v233h233zM827 1536v233h234v-233h-234zM1077 1434h215v-924q0 -170 -74 -293.5t-201 -185.5t-292 -62q-166 0 -294 61.5t-202.5 185.5t-74.5 294v924h217v-912q0 -179 94 -266.5
t260 -87.5q164 0 258 87.5t94 266.5v912z" />
    <glyph glyph-name="uni01DA" unicode="&#x1da;" horiz-adv-x="1206" 
d="M754 1481h-299l-144 180l150 113l143 -183l144 183l149 -113zM500 1421v-233h-234v233h234zM709 1188v233h233v-233h-233zM858 1085h205v-1085h-201v106q-50 -62 -129.5 -99.5t-167.5 -37.5q-195 0 -313.5 126.5t-118.5 326.5v663h205v-624q0 -303 252 -303q124 0 196 83
t72 226v618z" />
    <glyph glyph-name="uni01DB" unicode="&#x1db;" horiz-adv-x="1445" 
d="M829 1829h-213l-245 272h278zM385 1536v233h233v-233h-233zM827 1536v233h234v-233h-234zM725 -31q-166 0 -294 61.5t-202.5 185.5t-74.5 294v924h217v-912q0 -179 94 -266.5t260 -87.5q164 0 258 87.5t94 266.5v912h215v-924q0 -170 -74 -293.5t-201 -185.5t-292 -62z
" />
    <glyph glyph-name="uni01DC" unicode="&#x1dc;" horiz-adv-x="1206" 
d="M711 1481h-213l-246 272h278zM266 1188v233h234v-233h-234zM709 1188v233h233v-233h-233zM858 1085h205v-1085h-201v106q-50 -62 -129.5 -99.5t-167.5 -37.5q-195 0 -313.5 126.5t-118.5 326.5v663h205v-624q0 -303 252 -303q124 0 196 83t72 226v618z" />
    <glyph glyph-name="uni01DE" unicode="&#x1de;" horiz-adv-x="1431" 
d="M1065 1993v-164h-696v164h696zM612 1536h-233v233h233v-233zM1055 1536h-234v233h234v-233zM1194 0l-150 369h-657l-149 -369h-218l590 1434h211l590 -1434h-217zM463 555h506l-252 621z" />
    <glyph glyph-name="uni01DF" unicode="&#x1df;" horiz-adv-x="1153" 
d="M895 1675v-164h-696v164h696zM442 1219h-233v233h233v-233zM885 1219h-234v233h234v-233zM1114 184l29 -174q-81 -16 -142 -16q-147 0 -192 131q-45 -66 -136 -105.5t-204 -39.5q-172 0 -279.5 87t-107.5 226q0 135 86.5 213t284.5 121q184 40 246.5 74t62.5 96
q0 63 -59 102t-156 39q-116 0 -189 -60.5t-88 -160.5l-188 28q25 166 153.5 268.5t311.5 102.5q191 0 300 -94t109 -258v-490q0 -102 74 -102q26 0 84 12zM762 369v211q-18 -27 -71 -50.5t-187 -60.5q-131 -37 -179.5 -72.5t-48.5 -93.5q0 -69 50 -107t145 -38
q129 0 210 58.5t81 152.5z" />
    <glyph glyph-name="Aringacute" unicode="&#x1fa;" horiz-adv-x="1431" 
d="M1194 0l-150 369h-657l-149 -369h-218l553 1346q-116 63 -116 196q0 73 39.5 128.5t107.5 82.5l166 252h279l-226 -250q71 -25 112.5 -82t41.5 -131q0 -65 -31.5 -117t-87.5 -82l553 -1343h-217zM610 1542q0 -48 29 -78t78 -30t77.5 30t28.5 78t-28.5 78.5t-77.5 30.5
t-78 -30.5t-29 -78.5zM463 555h506l-252 621z" />
    <glyph glyph-name="aringacute" unicode="&#x1fb;" horiz-adv-x="1153" 
d="M1114 184l29 -174q-81 -16 -142 -16q-147 0 -192 131q-45 -66 -136 -105.5t-204 -39.5q-172 0 -279.5 87t-107.5 226q0 135 86.5 213t284.5 121q184 40 246.5 74t62.5 96q0 63 -59 102t-156 39q-116 0 -189 -60.5t-88 -160.5l-188 28q17 114 85.5 200.5t174.5 131.5
q-55 61 -55 148q0 73 39.5 128.5t107.5 82.5l166 252h279l-226 -250q71 -25 112.5 -82t41.5 -131q0 -87 -53 -146q98 -42 150 -122t52 -193v-490q0 -102 74 -102q26 0 84 12zM440 1225q0 -48 29 -78.5t78 -30.5t77.5 30.5t28.5 78.5t-28.5 78t-77.5 30t-78 -30t-29 -78z
M762 369v211q-18 -27 -71 -50.5t-187 -60.5q-131 -37 -179.5 -72.5t-48.5 -93.5q0 -69 50 -107t145 -38q129 0 210 58.5t81 152.5z" />
    <glyph glyph-name="AEacute" unicode="&#x1fc;" horiz-adv-x="1714" 
d="M1169 1808l-245 -272h-213l180 272h278zM1632 1245h-557v-399h490v-184h-490v-474h557v-188h-764v360h-491l-137 -360h-220l555 1434h1057v-189zM444 539h424v706h-153z" />
    <glyph glyph-name="aeacute" unicode="&#x1fd;" horiz-adv-x="1816" 
d="M1253 1491l-245 -272h-213l180 272h278zM946 459q17 -142 92 -221.5t197 -79.5q106 0 176 49.5t127 157.5l166 -107q-65 -133 -184 -211t-285 -78q-253 0 -383 195q-52 -90 -150.5 -142.5t-228.5 -52.5q-172 0 -281.5 93.5t-109.5 234.5q0 139 86 215t289 119
q169 36 225.5 70.5t56.5 95.5q0 60 -54 95.5t-144 35.5q-108 0 -176.5 -55t-83.5 -156l-199 31q25 167 150.5 267.5t308.5 100.5q246 0 338 -162q128 162 356 162q227 0 363.5 -155.5t136.5 -417.5v-84h-789zM1235 928q-125 0 -203.5 -81.5t-85.5 -219.5h578
q-12 148 -88.5 224.5t-200.5 76.5zM739 369v204q-20 -29 -68.5 -52.5t-156.5 -53.5q-138 -38 -182.5 -70t-44.5 -100q0 -61 49.5 -100t138.5 -39q114 0 189 61.5t75 149.5z" />
    <glyph glyph-name="Oslashacute" unicode="&#x1fe;" horiz-adv-x="1380" 
d="M1022 1839l-246 -272h-213l180 272h279zM1106 1292q94 -100 143 -247.5t49 -327.5q0 -218 -70 -385.5t-209 -265t-329 -97.5q-159 0 -287 70l-81 -145l-144 75l96 172q-94 100 -143 248t-49 328q0 218 70 385.5t209 264.5t329 97q162 0 285 -69l82 145l145 -76zM287 717
q0 -242 90 -391l506 905q-82 51 -193 51q-194 0 -298.5 -153t-104.5 -412zM690 152q194 0 299 153t105 412q0 242 -90 391l-508 -903q83 -53 194 -53z" />
    <glyph glyph-name="oslashacute" unicode="&#x1ff;" horiz-adv-x="1187" 
d="M967 1491l-246 -272h-213l180 272h279zM983 940q123 -155 123 -397q0 -261 -140 -417.5t-372 -156.5q-157 0 -272 74l-95 -129l-125 82l107 145q-127 152 -127 402q0 261 140 417t372 156q151 0 274 -74l95 129l122 -90zM281 543q0 -142 49 -236l428 584q-70 45 -164 45
q-148 0 -230.5 -105.5t-82.5 -287.5zM594 150q148 0 230.5 105.5t82.5 287.5q0 139 -47 231l-428 -581q67 -43 162 -43z" />
    <glyph glyph-name="Scommaaccent" unicode="&#x218;" horiz-adv-x="1286" 
d="M670 -31q-258 0 -425 132.5t-204 367.5l213 33q28 -161 135.5 -247.5t280.5 -86.5q340 0 340 238q0 62 -33.5 102t-115 73.5t-245.5 75.5q-268 70 -379.5 162.5t-111.5 243.5q0 179 136.5 290t356.5 111q215 0 375 -119.5t197 -308.5l-213 -39q-25 120 -124.5 194.5
t-234.5 74.5q-126 0 -201 -55.5t-75 -147.5q0 -54 32.5 -88.5t115 -67.5t253.5 -78q257 -68 367.5 -164.5t114.5 -258.5q4 -201 -145.5 -319t-409.5 -118zM563 -561v108q38 7 53 27.5t15 63.5h-84v229h246v-195q0 -102 -62.5 -163.5t-167.5 -69.5z" />
    <glyph glyph-name="scommaaccent" unicode="&#x219;" horiz-adv-x="1105" 
d="M586 -31q-217 0 -362 105t-173 282l187 41q19 -116 112.5 -183t235.5 -67q127 0 195.5 39t68.5 111q0 47 -26.5 75.5t-93 50.5t-195.5 44q-228 37 -324 109.5t-96 211.5q0 141 117 234.5t292 93.5t312 -96t168 -242l-185 -47q-22 91 -105 150t-190 59q-91 0 -153 -43
t-62 -106q0 -41 25.5 -66t92 -45.5t196.5 -42.5q224 -37 322.5 -114t98.5 -222q0 -154 -123 -243t-335 -89zM479 -561v108q38 7 53 27.5t15 63.5h-84v229h246v-195q0 -102 -62.5 -163.5t-167.5 -69.5z" />
    <glyph glyph-name="uni021A" unicode="&#x21a;" horiz-adv-x="1265" 
d="M524 0v1235h-493v199h1204v-199h-494v-1235h-217zM526 -530v108q38 7 53 27t15 63h-84v230h246v-195q0 -102 -62.5 -163.5t-167.5 -69.5z" />
    <glyph glyph-name="uni021B" unicode="&#x21b;" horiz-adv-x="856" 
d="M262 1372l205 62v-349h336v-188h-336v-608q0 -63 30.5 -97t86.5 -34q49 0 91.5 9t115.5 36l55 -185q-89 -29 -147 -39t-126 -10q-138 0 -224.5 82.5t-86.5 214.5v631h-252v188h252v287zM436 -561v108q38 7 53 27.5t15 63.5h-84v229h246v-195q0 -102 -62.5 -163.5
t-167.5 -69.5z" />
    <glyph glyph-name="uni0228" unicode="&#x228;" horiz-adv-x="1161" 
d="M1079 1235h-698v-406h528v-192h-528v-438h698v-199h-405l-58 -98q30 6 64 6q90 0 151.5 -50t61.5 -126q0 -98 -67.5 -158.5t-182.5 -60.5q-88 0 -157.5 37.5t-104.5 103.5l121 80q28 -45 59.5 -63.5t81.5 -18.5q49 0 75.5 22t24.5 58q-2 33 -27.5 51t-72.5 18
q-49 0 -100 -32l-111 59l98 172h-366v1434h915v-199z" />
    <glyph glyph-name="uni0229" unicode="&#x229;" horiz-adv-x="1161" 
d="M283 461q17 -147 94 -229t201 -82q107 0 179.5 51.5t127.5 160.5l159 -100q-58 -125 -165 -203t-254 -88l-60 -100q30 6 64 6q90 0 151.5 -50t61.5 -126q0 -98 -67.5 -158.5t-182.5 -60.5q-88 0 -157.5 37.5t-104.5 103.5l121 80q28 -45 59.5 -63.5t81.5 -18.5
q49 0 75.5 22t24.5 58q-2 33 -27.5 51.5t-72.5 18.5t-100 -33l-111 59l102 180q-187 31 -294 182.5t-107 383.5q0 261 135.5 417t360.5 156q226 0 363.5 -156t137.5 -417v-82h-796zM578 936q-126 0 -207 -83.5t-88 -227.5h591q-17 153 -94.5 232t-201.5 79z" />
    <glyph glyph-name="uni0237" unicode="&#x237;" horiz-adv-x="763" 
d="M621 1085v-1073q0 -183 -108.5 -292t-283.5 -109q-140 0 -270 47l57 178q110 -37 189 -37q211 0 211 228v870h-375v188h580z" />
    <glyph glyph-name="uni0258" unicode="&#x258;" horiz-adv-x="1161" 
d="M584 1116q225 0 360 -156t135 -417t-133.5 -417.5t-361.5 -156.5q-164 0 -284 79t-183 214l159 100q55 -109 128 -160.5t180 -51.5q124 0 201 82t94 229h-797v82q0 261 138 417t364 156zM584 936q-124 0 -202 -79t-95 -232h592q-7 144 -88 227.5t-207 83.5z" />
    <glyph glyph-name="uni0259" unicode="&#x259;" horiz-adv-x="1161" 
d="M584 1116q228 0 361.5 -156t133.5 -417t-135.5 -417.5t-359.5 -156.5q-226 0 -364 156.5t-138 417.5v82h797q-17 147 -94 229t-201 82q-107 0 -180 -52t-128 -161l-159 100q63 135 183 214t284 79zM584 150q126 0 207 83.5t88 227.5h-592q17 -153 95 -232t202 -79z" />
    <glyph glyph-name="circumflex" unicode="&#x2c6;" horiz-adv-x="831" 
d="M928 1260l-150 -113l-143 182l-143 -182l-150 113l143 180h299z" />
    <glyph glyph-name="caron" unicode="&#x2c7;" horiz-adv-x="831" 
d="M559 1481l150 -113l-144 -180h-299l-143 180l149 113l144 -183z" />
    <glyph glyph-name="breve" unicode="&#x2d8;" horiz-adv-x="819" 
d="M401 1167q-121 0 -199.5 73t-78.5 192h135q11 -47 48.5 -76t94.5 -29t95 29t49 76h135q0 -119 -78.5 -192t-200.5 -73z" />
    <glyph glyph-name="dotaccent" unicode="&#x2d9;" horiz-adv-x="489" 
d="M123 1188v244h244v-244h-244z" />
    <glyph glyph-name="ring" unicode="&#x2da;" horiz-adv-x="765" 
d="M383 963q-115 0 -187.5 64.5t-72.5 166.5t72.5 166.5t187.5 64.5t187.5 -64.5t72.5 -166.5t-72.5 -166.5t-187.5 -64.5zM383 1085q49 0 77.5 30.5t28.5 78.5t-28.5 78.5t-77.5 30.5t-78 -30.5t-29 -78.5t29 -78.5t78 -30.5z" />
    <glyph glyph-name="ogonek" unicode="&#x2db;" horiz-adv-x="757" 
d="M379 -436q-117 0 -186.5 52t-69.5 140t68.5 158t214.5 131l104 -45q-122 -71 -169.5 -117.5t-47.5 -95.5q0 -61 86 -61q80 0 184 59l72 -152q-143 -69 -256 -69z" />
    <glyph glyph-name="tilde" unicode="&#x2dc;" horiz-adv-x="921" 
d="M600 1178q-54 0 -145 41t-121 41q-55 0 -70 -72h-141q5 113 57 175t144 62q54 0 144 -39.5t120 -39.5q54 0 69 69h142q-4 -114 -57 -175.5t-142 -61.5z" />
    <glyph glyph-name="hungarumlaut" unicode="&#x2dd;" horiz-adv-x="1093" 
d="M123 1188l172 260h264l-233 -260h-203zM494 1188l172 260h264l-234 -260h-202z" />
    <glyph glyph-name="gravecomb" unicode="&#x300;" horiz-adv-x="0" 
d="M-123 1188h-213l-246 272h279z" />
    <glyph glyph-name="acutecomb" unicode="&#x301;" horiz-adv-x="0" 
d="M-582 1188l181 272h278l-246 -272h-213z" />
    <glyph glyph-name="uni0302" unicode="&#x302;" horiz-adv-x="0" 
d="M-123 1260l-149 -113l-144 182l-143 -182l-150 113l144 180h299z" />
    <glyph glyph-name="tildecomb" unicode="&#x303;" horiz-adv-x="0" 
d="M-322 1178q-54 0 -145 41t-121 41q-54 0 -69 -72h-142q5 113 57 175t144 62q54 0 144 -39.5t120 -39.5q55 0 70 69h141q-4 -114 -57 -175.5t-142 -61.5z" />
    <glyph glyph-name="uni0304" unicode="&#x304;" horiz-adv-x="0" 
d="M-819 1188v164h696v-164h-696z" />
    <glyph glyph-name="uni0306" unicode="&#x306;" horiz-adv-x="0" 
d="M-401 1167q-122 0 -200.5 73t-78.5 192h135q11 -47 49 -76t95 -29t94.5 29t48.5 76h135q0 -119 -78.5 -192t-199.5 -73z" />
    <glyph glyph-name="uni0307" unicode="&#x307;" horiz-adv-x="0" 
d="M-367 1188v244h244v-244h-244z" />
    <glyph glyph-name="uni0308" unicode="&#x308;" horiz-adv-x="0" 
d="M-799 1188v233h234v-233h-234zM-356 1188v233h233v-233h-233z" />
    <glyph glyph-name="uni030A" unicode="&#x30a;" horiz-adv-x="0" 
d="M-383 963q-115 0 -187.5 64.5t-72.5 166.5t72.5 166.5t187.5 64.5t187.5 -64.5t72.5 -166.5t-72.5 -166.5t-187.5 -64.5zM-383 1085q49 0 78 30.5t29 78.5t-29 78.5t-78 30.5t-77.5 -30.5t-28.5 -78.5t28.5 -78.5t77.5 -30.5z" />
    <glyph glyph-name="uni030B" unicode="&#x30b;" horiz-adv-x="0" 
d="M-930 1188l172 260h264l-233 -260h-203zM-559 1188l172 260h264l-233 -260h-203z" />
    <glyph glyph-name="uni030C" unicode="&#x30c;" horiz-adv-x="0" 
d="M-272 1481l149 -113l-143 -180h-299l-144 180l150 113l143 -183z" />
    <glyph glyph-name="dotbelowcomb" unicode="&#x323;" horiz-adv-x="0" 
d="M-367 -346v244h244v-244h-244z" />
    <glyph glyph-name="uni0326" unicode="&#x326;" horiz-adv-x="0" 
d="M-352 -530v108q38 7 52.5 27t14.5 63h-84v230h246v-195q0 -102 -62 -163.5t-167 -69.5z" />
    <glyph glyph-name="uni0327" unicode="&#x327;" horiz-adv-x="0" 
d="M-336 -92q90 0 151.5 -50t61.5 -126q0 -98 -67.5 -158.5t-182.5 -60.5q-88 0 -157.5 37.5t-104.5 103.5l121 80q28 -45 59.5 -63.5t81.5 -18.5q49 0 76 22t25 58q-2 33 -28 51t-73 18q-49 0 -100 -32l-111 59l117 203h143l-75 -129q30 6 63 6z" />
    <glyph glyph-name="uni0328" unicode="&#x328;" horiz-adv-x="0" 
d="M-379 -436q-117 0 -186.5 52t-69.5 140t68.5 158t214.5 131l104 -45q-122 -71 -169.5 -117.5t-47.5 -95.5q0 -61 86 -61q80 0 184 59l72 -152q-143 -69 -256 -69z" />
    <glyph glyph-name="uni0337" unicode="&#x337;" horiz-adv-x="0" 
d="M-981 -82l-125 82l860 1176l123 -91z" />
    <glyph glyph-name="uni0338" unicode="&#x338;" horiz-adv-x="0" 
d="M-1004 -106l-143 75l879 1571l145 -76z" />
    <glyph glyph-name="uni0394" unicode="&#x394;" horiz-adv-x="1431" 
d="M821 1434l590 -1434h-1391l590 1434h211zM313 186h805l-401 990z" />
    <glyph glyph-name="uni03A9" unicode="&#x3a9;" horiz-adv-x="1228" 
d="M1147 737q0 -405 -172 -538h172v-199h-451v178q236 68 236 539q0 270 -80.5 409.5t-237.5 139.5t-237 -139.5t-80 -409.5q0 -471 235 -539v-178h-450v199h172q-172 133 -172 538q0 344 139 535.5t393 191.5t393.5 -191.5t139.5 -535.5z" />
    <glyph glyph-name="uni03BC" unicode="&#x3bc;" 
d="M922 1085h204v-1085h-204v100q-50 -60 -129.5 -95.5t-167.5 -35.5q-179 0 -277 94v-524h-205v1546h205v-624q0 -153 68.5 -228t208.5 -75q137 0 217 83.5t80 225.5v618z" />
    <glyph glyph-name="pi" unicode="&#x3c0;" horiz-adv-x="1126" 
d="M1096 897h-183v-561q0 -75 44 -111.5t139 -36.5v-188q-192 0 -289.5 78t-97.5 223v596h-271v-897h-205v897h-202v188h1065v-188z" />
    <glyph glyph-name="uni0E3F" unicode="&#xe3f;" horiz-adv-x="1402" 
d="M1051 768q114 -50 176.5 -140.5t62.5 -207.5q0 -181 -135.5 -300.5t-341.5 -119.5h-57v-256h-215v256h-316v1434h316v245h215v-245h43q183 0 304.5 -108t121.5 -271q0 -97 -45.5 -171.5t-128.5 -115.5zM440 1235v-385h346q107 0 165.5 53.5t58.5 151.5q0 83 -60.5 131.5
t-163.5 48.5h-346zM803 199q129 0 200.5 60.5t71.5 170.5q0 103 -74 164t-198 61h-363v-456h363z" />
    <glyph glyph-name="uni1E04" unicode="&#x1e04;" horiz-adv-x="1300" 
d="M1010 768q114 -50 176.5 -140.5t62.5 -207.5q0 -181 -135.5 -300.5t-341.5 -119.5h-608v1434h594q183 0 304.5 -108t121.5 -271q0 -97 -45.5 -171.5t-128.5 -115.5zM379 1235v-385h366q107 0 165.5 53.5t58.5 151.5q0 83 -60.5 131.5t-163.5 48.5h-366zM762 199
q129 0 200.5 60.5t71.5 170.5q0 103 -74 164t-198 61h-383v-456h383zM532 -346v244h244v-244h-244z" />
    <glyph glyph-name="uni1E05" unicode="&#x1e05;" horiz-adv-x="1228" 
d="M653 1116q220 0 357 -159t137 -414t-137 -414.5t-357 -159.5q-91 0 -171 31t-134 84v-84h-205v1434h205v-433q104 115 305 115zM637 158q143 0 224 102.5t81 282.5t-81.5 282.5t-225.5 102.5q-134 0 -210.5 -80t-76.5 -217v-176q0 -136 78 -216.5t211 -80.5zM530 -377
v244h244v-244h-244z" />
    <glyph glyph-name="uni1E0C" unicode="&#x1e0c;" horiz-adv-x="1376" 
d="M164 1434h450q322 0 501 -185t179 -532t-179 -532t-501 -185h-450v1434zM594 199q239 0 362 126.5t123 391.5t-123 391.5t-362 126.5h-215v-1036h215zM584 -346v244h243v-244h-243z" />
    <glyph glyph-name="uni1E0D" unicode="&#x1e0d;" horiz-adv-x="1228" 
d="M881 1434h204v-1434h-204v84q-54 -53 -134.5 -84t-171.5 -31q-220 0 -356.5 159.5t-136.5 414.5t136.5 414t356.5 159q99 0 178.5 -30.5t127.5 -84.5v433zM592 158q133 0 211 80.5t78 216.5v176q0 137 -76.5 217t-210.5 80q-144 0 -225.5 -102.5t-81.5 -282.5t81 -282.5
t224 -102.5zM453 -377v244h243v-244h-243z" />
    <glyph glyph-name="uni1E24" unicode="&#x1e24;" horiz-adv-x="1390" 
d="M164 1434h217v-594h629v594h217v-1434h-217v641h-629v-641h-217v1434zM573 -346v244h244v-244h-244z" />
    <glyph glyph-name="uni1E25" unicode="&#x1e25;" horiz-adv-x="1249" 
d="M682 1116q193 0 313.5 -122.5t120.5 -329.5v-664h-205v643q0 285 -270 285q-134 0 -213.5 -80.5t-79.5 -210.5v-637h-205v1434h205v-451q53 61 142 97t192 36zM508 -346v244h244v-244h-244z" />
    <glyph glyph-name="uni1E36" unicode="&#x1e36;" horiz-adv-x="1173" 
d="M164 1434h217v-1235h741v-199h-958v1434zM561 -346v244h244v-244h-244z" />
    <glyph glyph-name="uni1E37" unicode="&#x1e37;" horiz-adv-x="491" 
d="M143 0v1434h205v-1434h-205zM123 -346v244h244v-244h-244z" />
    <glyph glyph-name="uni1E44" unicode="&#x1e44;" horiz-adv-x="1380" 
d="M807 1780v-244h-244v244h244zM1001 1434h216v-1434h-224l-614 1067v-1067h-215v1434h223l614 -1069v1069z" />
    <glyph glyph-name="uni1E45" unicode="&#x1e45;" horiz-adv-x="1249" 
d="M772 1462v-243h-244v243h244zM682 1116q193 0 313.5 -122.5t120.5 -329.5v-664h-205v643q0 285 -270 285q-134 0 -213.5 -80.5t-79.5 -210.5v-637h-205v1085h205v-102q53 61 142 97t192 36z" />
    <glyph glyph-name="uni1E46" unicode="&#x1e46;" horiz-adv-x="1380" 
d="M1001 1434h216v-1434h-224l-614 1067v-1067h-215v1434h223l614 -1069v1069zM563 -346v244h244v-244h-244z" />
    <glyph glyph-name="uni1E47" unicode="&#x1e47;" horiz-adv-x="1249" 
d="M682 1116q193 0 313.5 -122.5t120.5 -329.5v-664h-205v643q0 285 -270 285q-134 0 -213.5 -80.5t-79.5 -210.5v-637h-205v1085h205v-102q53 61 142 97t192 36zM487 -346v244h244v-244h-244z" />
    <glyph glyph-name="uni1E4C" unicode="&#x1e4c;" horiz-adv-x="1380" 
d="M563 1866l180 272h279l-246 -272h-213zM831 1556q-54 0 -145 41t-121 41q-55 0 -69 -71h-142q5 113 57 175t144 62q54 0 144 -40t120 -40q55 0 70 70h141q-4 -114 -57 -176t-142 -62zM690 -31q-190 0 -329 97.5t-209 265t-70 385.5t70 385.5t209 264.5t329 97t329 -97
t209 -264.5t70 -385.5t-70 -385.5t-209 -265t-329 -97.5zM690 168q188 0 289.5 148.5t101.5 400.5t-101.5 400.5t-289.5 148.5t-289.5 -148.5t-101.5 -400.5t101.5 -400.5t289.5 -148.5z" />
    <glyph glyph-name="uni1E4D" unicode="&#x1e4d;" horiz-adv-x="1187" 
d="M467 1518l180 272h279l-246 -272h-213zM735 1208q-54 0 -145 41t-121 41q-56 0 -70 -71h-141q5 113 57 175t144 62q54 0 144 -40t120 -40q55 0 70 70h141q-4 -114 -57 -176t-142 -62zM594 -31q-232 0 -372 156.5t-140 417.5t140 417t372 156t372 -156t140 -417
t-140 -417.5t-372 -156.5zM594 158q145 0 226 103t81 282t-81 282t-226 103t-226 -103t-81 -282t81 -282t226 -103z" />
    <glyph glyph-name="uni1E62" unicode="&#x1e62;" horiz-adv-x="1286" 
d="M670 -31q-258 0 -425 132.5t-204 367.5l213 33q28 -161 135.5 -247.5t280.5 -86.5q340 0 340 238q0 62 -33.5 102t-115 73.5t-245.5 75.5q-268 70 -379.5 162.5t-111.5 243.5q0 179 136.5 290t356.5 111q215 0 375 -119.5t197 -308.5l-213 -39q-25 120 -124.5 194.5
t-234.5 74.5q-126 0 -201 -55.5t-75 -147.5q0 -54 32.5 -88.5t115 -67.5t253.5 -78q257 -68 367.5 -164.5t114.5 -258.5q4 -201 -145.5 -319t-409.5 -118zM547 -377v244h244v-244h-244z" />
    <glyph glyph-name="uni1E63" unicode="&#x1e63;" horiz-adv-x="1105" 
d="M586 -31q-217 0 -362 105t-173 282l187 41q19 -116 112.5 -183t235.5 -67q127 0 195.5 39t68.5 111q0 47 -26.5 75.5t-93 50.5t-195.5 44q-228 37 -324 109.5t-96 211.5q0 141 117 234.5t292 93.5t312 -96t168 -242l-185 -47q-22 91 -105 150t-190 59q-91 0 -153 -43
t-62 -106q0 -41 25.5 -66t92 -45.5t196.5 -42.5q224 -37 322.5 -114t98.5 -222q0 -154 -123 -243t-335 -89zM463 -377v244h244v-244h-244z" />
    <glyph glyph-name="uni1E6C" unicode="&#x1e6c;" horiz-adv-x="1265" 
d="M524 0v1235h-493v199h1204v-199h-494v-1235h-217zM510 -346v244h244v-244h-244z" />
    <glyph glyph-name="uni1E6D" unicode="&#x1e6d;" horiz-adv-x="856" 
d="M262 1372l205 62v-349h336v-188h-336v-608q0 -63 30.5 -97t86.5 -34q49 0 91.5 9t115.5 36l55 -185q-89 -29 -147 -39t-126 -10q-138 0 -224.5 82.5t-86.5 214.5v631h-252v188h252v287zM420 -377v244h244v-244h-244z" />
    <glyph glyph-name="Wgrave" unicode="&#x1e80;" horiz-adv-x="1636" 
d="M930 1536h-213l-246 272h279zM1341 1434h213l-213 -1434h-225l-297 817l-299 -817h-225l-213 1434h213l156 -1090l299 834h137l299 -834z" />
    <glyph glyph-name="wgrave" unicode="&#x1e81;" horiz-adv-x="1542" 
d="M860 1188h-213l-246 272h279zM1331 1085h191l-277 -1085h-229l-246 778l-244 -778h-229l-277 1085h189l213 -839l264 839h170l262 -839z" />
    <glyph glyph-name="Wacute" unicode="&#x1e82;" horiz-adv-x="1636" 
d="M1155 1808l-246 -272h-213l181 272h278zM1341 1434h213l-213 -1434h-225l-297 817l-299 -817h-225l-213 1434h213l156 -1090l299 834h137l299 -834z" />
    <glyph glyph-name="wacute" unicode="&#x1e83;" horiz-adv-x="1542" 
d="M1085 1460l-245 -272h-213l180 272h278zM1331 1085h191l-277 -1085h-229l-246 778l-244 -778h-229l-277 1085h189l213 -839l264 839h170l262 -839z" />
    <glyph glyph-name="Wdieresis" unicode="&#x1e84;" horiz-adv-x="1636" 
d="M719 1769v-233h-234v233h234zM1161 1769v-233h-233v233h233zM1341 1434h213l-213 -1434h-225l-297 817l-299 -817h-225l-213 1434h213l156 -1090l299 834h137l299 -834z" />
    <glyph glyph-name="wdieresis" unicode="&#x1e85;" horiz-adv-x="1542" 
d="M649 1421v-233h-233v233h233zM1092 1421v-233h-234v233h234zM1331 1085h191l-277 -1085h-229l-246 778l-244 -778h-229l-277 1085h189l213 -839l264 839h170l262 -839z" />
    <glyph glyph-name="uni1E92" unicode="&#x1e92;" horiz-adv-x="1255" 
d="M72 0v182l852 1061h-822v191h1082v-181l-852 -1063h844v-190h-1104zM506 -346v244h244v-244h-244z" />
    <glyph glyph-name="uni1E93" unicode="&#x1e93;" horiz-adv-x="1150" 
d="M102 0v166l672 743h-651v176h907v-165l-672 -744h691v-176h-947zM453 -346v244h243v-244h-243z" />
    <glyph glyph-name="uni1EA0" unicode="&#x1ea0;" horiz-adv-x="1431" 
d="M1411 0h-217l-150 369h-657l-149 -369h-218l590 1434h211zM463 555h506l-252 621zM590 -346v244h244v-244h-244z" />
    <glyph glyph-name="uni1EA1" unicode="&#x1ea1;" horiz-adv-x="1153" 
d="M1114 184l29 -174q-81 -16 -142 -16q-147 0 -192 131q-45 -66 -136 -105.5t-204 -39.5q-172 0 -279.5 87t-107.5 226q0 135 86.5 213t284.5 121q184 40 246.5 74t62.5 96q0 63 -59 102t-156 39q-116 0 -189 -60.5t-88 -160.5l-188 28q25 166 153.5 268.5t311.5 102.5
q191 0 300 -94t109 -258v-490q0 -102 74 -102q26 0 84 12zM762 369v211q-18 -27 -71 -50.5t-187 -60.5q-131 -37 -179.5 -72.5t-48.5 -93.5q0 -69 50 -107t145 -38q129 0 210 58.5t81 152.5zM444 -377v244h244v-244h-244z" />
    <glyph glyph-name="uni1EAC" unicode="&#x1eac;" horiz-adv-x="1431" 
d="M717 1677l-144 -182l-149 113l143 180h299l144 -180l-150 -113zM1411 0h-217l-150 369h-657l-149 -369h-218l590 1434h211zM463 555h506l-252 621zM596 -346v244h244v-244h-244z" />
    <glyph glyph-name="uni1EAD" unicode="&#x1ead;" horiz-adv-x="1153" 
d="M547 1360l-144 -182l-149 112l143 180h299l144 -180l-150 -112zM1114 184l29 -174q-81 -16 -142 -16q-147 0 -192 131q-45 -66 -136 -105.5t-204 -39.5q-172 0 -279.5 87t-107.5 226q0 135 86.5 213t284.5 121q184 40 246.5 74t62.5 96q0 63 -59 102t-156 39
q-116 0 -189 -60.5t-88 -160.5l-188 28q25 166 153.5 268.5t311.5 102.5q191 0 300 -94t109 -258v-490q0 -102 74 -102q26 0 84 12zM762 369v211q-18 -27 -71 -50.5t-187 -60.5q-131 -37 -179.5 -72.5t-48.5 -93.5q0 -69 50 -107t145 -38q129 0 210 58.5t81 152.5zM446 -377
v244h244v-244h-244z" />
    <glyph glyph-name="uni1EB8" unicode="&#x1eb8;" horiz-adv-x="1161" 
d="M164 0v1434h915v-199h-698v-406h528v-192h-528v-438h698v-199h-915zM506 -346v244h244v-244h-244z" />
    <glyph glyph-name="uni1EB9" unicode="&#x1eb9;" horiz-adv-x="1161" 
d="M283 461q17 -147 94 -229t201 -82q107 0 179.5 51.5t127.5 160.5l159 -100q-63 -135 -182.5 -214t-283.5 -79q-228 0 -362 156.5t-134 417.5t135.5 417t360.5 156q226 0 363.5 -156t137.5 -417v-82h-796zM578 936q-126 0 -207 -83.5t-88 -227.5h591q-17 153 -94.5 232
t-201.5 79zM455 -377v244h243v-244h-243z" />
    <glyph glyph-name="uni1EBC" unicode="&#x1ebc;" horiz-adv-x="1161" 
d="M770 1526q-54 0 -145 41t-121 41q-55 0 -70 -72h-141q5 113 57 175.5t144 62.5q54 0 144 -40t120 -40q54 0 69 69h142q-4 -114 -57 -175.5t-142 -61.5zM164 0v1434h915v-199h-698v-406h528v-192h-528v-438h698v-199h-915z" />
    <glyph glyph-name="uni1EBD" unicode="&#x1ebd;" horiz-adv-x="1161" 
d="M453 1290q-56 0 -70 -71h-141q5 113 56.5 175t143.5 62q54 0 144.5 -40t120.5 -40q54 0 69 70h142q-4 -114 -57 -176t-142 -62q-54 0 -145 41t-121 41zM283 461q17 -147 94 -229t201 -82q107 0 179.5 51.5t127.5 160.5l159 -100q-63 -135 -182.5 -214t-283.5 -79
q-228 0 -362 156.5t-134 417.5t135.5 417t360.5 156q226 0 363.5 -156t137.5 -417v-82h-796zM578 936q-126 0 -207 -83.5t-88 -227.5h591q-17 153 -94.5 232t-201.5 79z" />
    <glyph glyph-name="uni1EC6" unicode="&#x1ec6;" horiz-adv-x="1161" 
d="M629 1677l-144 -182l-149 113l143 180h299l144 -180l-150 -113zM1079 1235h-698v-406h528v-192h-528v-438h698v-199h-915v1434h915v-199zM485 -346v244h244v-244h-244z" />
    <glyph glyph-name="uni1EC7" unicode="&#x1ec7;" horiz-adv-x="1161" 
d="M578 1360l-144 -182l-149 112l143 180h299l143 -180l-149 -112zM283 461q17 -147 94 -229t201 -82q107 0 179.5 51.5t127.5 160.5l159 -100q-63 -135 -182.5 -214t-283.5 -79q-228 0 -362 156.5t-134 417.5t135.5 417t360.5 156q226 0 363.5 -156t137.5 -417v-82h-796z
M578 936q-126 0 -207 -83.5t-88 -227.5h591q-17 153 -94.5 232t-201.5 79zM457 -377v244h243v-244h-243z" />
    <glyph glyph-name="uni1ECA" unicode="&#x1eca;" horiz-adv-x="544" 
d="M164 0v1434h217v-1434h-217zM160 -346v244h243v-244h-243z" />
    <glyph glyph-name="uni1ECB" unicode="&#x1ecb;" horiz-adv-x="491" 
d="M123 1229v244h244v-244h-244zM143 0v1085h205v-1085h-205zM123 -346v244h244v-244h-244z" />
    <glyph glyph-name="uni1ECC" unicode="&#x1ecc;" horiz-adv-x="1380" 
d="M690 -31q-190 0 -329 97.5t-209 265t-70 385.5t70 385.5t209 264.5t329 97t329 -97t209 -264.5t70 -385.5t-70 -385.5t-209 -265t-329 -97.5zM690 168q188 0 289.5 148.5t101.5 400.5t-101.5 400.5t-289.5 148.5t-289.5 -148.5t-101.5 -400.5t101.5 -400.5t289.5 -148.5z
M567 -377v244h244v-244h-244z" />
    <glyph glyph-name="uni1ECD" unicode="&#x1ecd;" horiz-adv-x="1187" 
d="M594 -31q-232 0 -372 156.5t-140 417.5t140 417t372 156t372 -156t140 -417t-140 -417.5t-372 -156.5zM594 158q145 0 226 103t81 282t-81 282t-226 103t-226 -103t-81 -282t81 -282t226 -103zM471 -377v244h244v-244h-244z" />
    <glyph glyph-name="uni1ED8" unicode="&#x1ed8;" horiz-adv-x="1380" 
d="M690 1708l-143 -182l-150 112l144 181h299l143 -181l-149 -112zM690 1464q190 0 329 -97t209 -264.5t70 -385.5t-70 -385.5t-209 -265t-329 -97.5t-329 97.5t-209 265t-70 385.5t70 385.5t209 264.5t329 97zM690 168q188 0 289.5 148.5t101.5 400.5t-101.5 400.5
t-289.5 148.5t-289.5 -148.5t-101.5 -400.5t101.5 -400.5t289.5 -148.5zM573 -377v244h244v-244h-244z" />
    <glyph glyph-name="uni1ED9" unicode="&#x1ed9;" horiz-adv-x="1187" 
d="M594 1360l-143 -182l-150 112l143 180h299l144 -180l-150 -112zM594 1116q232 0 372 -156t140 -417t-140 -417.5t-372 -156.5t-372 156.5t-140 417.5t140 417t372 156zM594 158q145 0 226 103t81 282t-81 282t-226 103t-226 -103t-81 -282t81 -282t226 -103zM471 -377
v244h244v-244h-244z" />
    <glyph glyph-name="uni1EE4" unicode="&#x1ee4;" horiz-adv-x="1445" 
d="M725 -31q-166 0 -294 61.5t-202.5 185.5t-74.5 294v924h217v-912q0 -179 94 -266.5t260 -87.5q164 0 258 87.5t94 266.5v912h215v-924q0 -170 -74 -293.5t-201 -185.5t-292 -62zM602 -377v244h244v-244h-244z" />
    <glyph glyph-name="uni1EE5" unicode="&#x1ee5;" horiz-adv-x="1206" 
d="M858 1085h205v-1085h-201v106q-50 -62 -129.5 -99.5t-167.5 -37.5q-195 0 -313.5 126.5t-118.5 326.5v663h205v-624q0 -303 252 -303q124 0 196 83t72 226v618zM442 -377v244h244v-244h-244z" />
    <glyph glyph-name="Ygrave" unicode="&#x1ef2;" horiz-adv-x="1271" 
d="M743 1536h-213l-245 272h278zM1010 1434h252l-519 -832v-602h-215v602l-518 832h252l375 -623z" />
    <glyph glyph-name="ygrave" unicode="&#x1ef3;" horiz-adv-x="1105" 
d="M659 1188h-213l-245 272h278zM854 1085h231l-548 -1239q-41 -94 -103.5 -133t-169.5 -39q-57 0 -182 23l33 180q88 -14 147 -14q46 0 71.5 17t45.5 63l74 176l-433 966h232l301 -723z" />
    <glyph glyph-name="uni1EF4" unicode="&#x1ef4;" horiz-adv-x="1271" 
d="M528 0v602l-518 832h252l375 -623l373 623h252l-519 -832v-602h-215zM514 -346v244h244v-244h-244z" />
    <glyph glyph-name="uni1EF5" unicode="&#x1ef5;" horiz-adv-x="1105" 
d="M854 1085h231l-548 -1239q-41 -94 -103.5 -133t-169.5 -39q-57 0 -182 23l33 180q88 -14 147 -14q46 0 71.5 17t45.5 63l74 176l-433 966h232l301 -723zM725 -346v244h244v-244h-244z" />
    <glyph glyph-name="uni1EF8" unicode="&#x1ef8;" horiz-adv-x="1271" 
d="M512 1608q-55 0 -70 -72h-141q5 113 57 175.5t144 62.5q54 0 144 -40t120 -40q55 0 70 69h141q-4 -114 -57 -175.5t-142 -61.5q-54 0 -145 41t-121 41zM1010 1434h252l-519 -832v-602h-215v602l-518 832h252l375 -623z" />
    <glyph glyph-name="uni1EF9" unicode="&#x1ef9;" horiz-adv-x="1105" 
d="M428 1260q-55 0 -70 -72h-141q5 113 57 175t144 62q54 0 144 -39.5t120 -39.5q55 0 70 69h141q-4 -114 -57 -175.5t-142 -61.5q-54 0 -145 41t-121 41zM854 1085h231l-548 -1239q-41 -94 -103.5 -133t-169.5 -39q-57 0 -182 23l33 180q88 -14 147 -14q46 0 71.5 17
t45.5 63l74 176l-433 966h232l301 -723z" />
    <glyph glyph-name="uni2002" unicode="&#x2002;" horiz-adv-x="1536" 
 />
    <glyph glyph-name="uni2003" unicode="&#x2003;" horiz-adv-x="1249" 
 />
    <glyph glyph-name="uni2004" unicode="&#x2004;" horiz-adv-x="716" 
 />
    <glyph glyph-name="uni2005" unicode="&#x2005;" horiz-adv-x="460" 
 />
    <glyph glyph-name="uni2007" unicode="&#x2007;" horiz-adv-x="1331" 
 />
    <glyph glyph-name="uni2008" unicode="&#x2008;" horiz-adv-x="536" 
 />
    <glyph glyph-name="uni2009" unicode="&#x2009;" horiz-adv-x="307" 
 />
    <glyph glyph-name="uni200A" unicode="&#x200a;" horiz-adv-x="153" 
 />
    <glyph glyph-name="uni200B" unicode="&#x200b;" horiz-adv-x="0" 
 />
    <glyph glyph-name="endash" unicode="&#x2013;" horiz-adv-x="1228" 
d="M123 528v199h983v-199h-983z" />
    <glyph glyph-name="emdash" unicode="&#x2014;" horiz-adv-x="1515" 
d="M123 528v199h1270v-199h-1270z" />
    <glyph glyph-name="quoteleft" unicode="&#x2018;" horiz-adv-x="561" 
d="M428 1454v-137q-56 -10 -77 -35.5t-21 -81.5h108v-291h-315v246q0 131 81 209t224 90z" />
    <glyph glyph-name="quoteright" unicode="&#x2019;" horiz-adv-x="561" 
d="M133 889v137q56 10 77 35.5t21 81.5h-108v291h315v-246q0 -131 -81 -209t-224 -90z" />
    <glyph glyph-name="quotesinglbase" unicode="&#x201a;" horiz-adv-x="561" 
d="M133 -258v137q56 10 77 35.5t21 81.5h-108v291h315v-246q0 -131 -81 -209t-224 -90z" />
    <glyph glyph-name="quotedblleft" unicode="&#x201c;" horiz-adv-x="1024" 
d="M412 1454v-131q-54 -10 -73.5 -34t-19.5 -77h103v-276h-299v233q0 124 77 198.5t212 86.5zM891 1454v-131q-53 -10 -72.5 -34t-19.5 -77h102v-276h-299v233q0 124 77 198.5t212 86.5z" />
    <glyph glyph-name="quotedblright" unicode="&#x201d;" horiz-adv-x="1024" 
d="M133 915v132q54 10 73 33.5t19 76.5h-102v277h299v-234q0 -124 -77 -198.5t-212 -86.5zM612 915v132q54 10 73.5 33.5t19.5 76.5h-103v277h299v-234q0 -124 -77 -198.5t-212 -86.5z" />
    <glyph glyph-name="quotedblbase" unicode="&#x201e;" horiz-adv-x="1024" 
d="M133 -242v131q53 10 72.5 34t19.5 77h-102v276h299v-233q0 -124 -77 -198.5t-212 -86.5zM612 -242v131q54 10 73.5 34t19.5 77h-103v276h299v-233q0 -124 -77 -198.5t-212 -86.5z" />
    <glyph glyph-name="dagger" unicode="&#x2020;" horiz-adv-x="1433" 
d="M608 -246v1133h-485v198h485v461h215v-461h488v-198h-488v-1133h-215z" />
    <glyph glyph-name="daggerdbl" unicode="&#x2021;" horiz-adv-x="1433" 
d="M1311 887h-488v-475h488v-199h-488v-459h-215v459h-485v199h485v475h-485v198h485v461h215v-461h488v-198z" />
    <glyph glyph-name="bullet" unicode="&#x2022;" horiz-adv-x="868" 
d="M434 563q-83 0 -135.5 51t-52.5 131q0 79 52.5 130t135.5 51t136 -51.5t53 -129.5q0 -80 -53 -131t-136 -51z" />
    <glyph glyph-name="ellipsis" unicode="&#x2026;" horiz-adv-x="1290" 
d="M123 0v256h262v-256h-262zM514 0v256h262v-256h-262zM905 0v256h262v-256h-262z" />
    <glyph glyph-name="perthousand" unicode="&#x2030;" horiz-adv-x="2701" 
d="M1266 1511l168 -73l-764 -1547l-168 70zM459 555q-163 0 -249.5 116t-86.5 333t86.5 332.5t249.5 115.5q160 0 247 -116t87 -332t-87 -332.5t-247 -116.5zM459 729q74 0 109.5 66t35.5 209t-35.5 208.5t-109.5 65.5q-77 0 -112.5 -66t-35.5 -208q0 -144 35.5 -209.5
t112.5 -65.5zM1487 -18q-161 0 -247.5 115.5t-86.5 332.5t86.5 333t247.5 116t247.5 -116t86.5 -333t-86.5 -332.5t-247.5 -115.5zM2245 -18q-163 0 -249.5 115.5t-86.5 332.5t86.5 333t249.5 116q160 0 246.5 -116.5t86.5 -332.5t-86.5 -332t-246.5 -116zM1487 156
q76 0 111.5 65.5t35.5 208.5q0 144 -35.5 209.5t-111.5 65.5t-112 -66t-36 -209t36 -208.5t112 -65.5zM2245 156q74 0 109.5 65.5t35.5 208.5t-35.5 209t-109.5 66q-77 0 -112.5 -66.5t-35.5 -208.5q0 -144 35.5 -209t112.5 -65z" />
    <glyph glyph-name="guilsinglleft" unicode="&#x2039;" horiz-adv-x="745" 
d="M623 969q-65 -208 -230 -391q166 -187 230 -394l-201 -63q-46 135 -113.5 239.5t-185.5 214.5q118 111 185.5 216.5t113.5 240.5z" />
    <glyph glyph-name="guilsinglright" unicode="&#x203a;" horiz-adv-x="745" 
d="M324 1032q46 -135 113.5 -240.5t185.5 -216.5q-118 -110 -185.5 -214.5t-113.5 -239.5l-201 63q65 209 229 394q-74 82 -135.5 184.5t-93.5 206.5z" />
    <glyph glyph-name="fraction" unicode="&#x2044;" horiz-adv-x="428" 
d="M528 1505l146 -61l-776 -1546l-144 59z" />
    <glyph glyph-name="uni207A" unicode="&#x207a;" horiz-adv-x="774" 
d="M713 1309v-142h-248v-258h-154v258h-250v142h250v252h154v-252h248z" />
    <glyph glyph-name="uni207B" unicode="&#x207b;" horiz-adv-x="651" 
d="M61 1161v148h529v-148h-529z" />
    <glyph glyph-name="lira" unicode="&#x20a4;" 
d="M993 748h215q0 -169 -50 -309.5t-139 -236.5t-213.5 -149t-270.5 -53h-216v655l-174 -63l-63 164l237 86v125l-174 -64l-63 164l237 86v281h216v-203l284 104l62 -164l-346 -127v-124l284 104l62 -164l-346 -127v-532q209 0 333.5 148.5t124.5 398.5z" />
    <glyph glyph-name="uni20A8" unicode="&#x20a8;" 
d="M1208 1434v-185h-288q75 -68 92 -166h196v-184h-190q-15 -109 -93 -186.5t-200 -106.5q135 -25 203 -233l121 -373h-265l-84 307q-72 262 -280 262h-318v193h471q87 0 146 35.5t84 101.5h-701v184h707q-45 152 -236 152h-471v199h1106z" />
    <glyph glyph-name="uni20A9" unicode="&#x20a9;" horiz-adv-x="1740" 
d="M1690 989h-224l-22 -151h246v-185h-273l-96 -653h-268l-174 653h-17l-174 -653h-268l-96 653h-273v185h246l-23 151h-223v185h197l-39 260h219l33 -260h819l33 260h219l-39 -260h197v-185zM483 989l19 -151h223l37 151h-279zM1239 838l18 151h-278l37 -151h223zM578 231
l102 422h-156zM1163 231l54 422h-156z" />
    <glyph glyph-name="Euro" unicode="&#x20ac;" horiz-adv-x="1458" 
d="M1133 510l202 -45q-39 -230 -193 -363t-374 -133q-218 0 -365.5 124.5t-207.5 340.5l-164 -16v184l133 14q-4 66 -4 101v22l-129 -12v184l147 15q47 248 200 393t390 145q218 0 371 -129t194 -346l-207 -43q-34 156 -129 238t-229 82q-139 0 -232.5 -84t-132.5 -234
l416 43v-184l-442 -45v-45q0 -53 2 -80l440 45v-184l-407 -41q42 -138 132.5 -213.5t223.5 -75.5q137 0 235 86t130 256z" />
    <glyph glyph-name="uni20BD" unicode="&#x20bd;" horiz-adv-x="1550" 
d="M958 1434q202 0 335.5 -127t133.5 -312t-133.5 -311.5t-335.5 -126.5h-393v-115h336v-184h-336v-258h-217v258h-246v184h246v129h-246v185h246v678h610zM938 756q122 0 198 66t76 173t-76 173.5t-198 66.5h-373v-479h373z" />
    <glyph glyph-name="uni20BF" unicode="&#x20bf;" horiz-adv-x="1402" 
d="M1290 420q0 -148 -93 -257.5t-247 -146.5v-272h-215v256h-133v-256h-215v256h-162v1434h162v245h215v-245h133v245h215v-268q125 -39 200 -134.5t75 -221.5q0 -97 -45.5 -171.5t-128.5 -115.5q114 -50 176.5 -140.5t62.5 -207.5zM1010 1055q0 83 -60.5 131.5t-163.5 48.5
h-346v-385h346q107 0 165.5 53.5t58.5 151.5zM803 199q129 0 200.5 60.5t71.5 170.5q0 103 -74 164t-198 61h-363v-456h363z" />
    <glyph glyph-name="uni2117" unicode="&#x2117;" horiz-adv-x="1351" 
d="M676 78q-241 0 -397 163.5t-156 415.5t156 415t397 163t397 -163t156 -415t-156 -415.5t-397 -163.5zM676 231q174 0 282.5 117t108.5 309q0 189 -108 306.5t-283 117.5t-283 -117.5t-108 -306.5q0 -190 108.5 -308t282.5 -118zM496 332v647h217q104 0 172.5 -59.5
t68.5 -163.5t-68.5 -162.5t-174.5 -58.5h-88v-203h-127zM623 649h98q106 0 106 107q0 108 -106 108h-98v-215z" />
    <glyph glyph-name="trademark" unicode="&#x2122;" horiz-adv-x="1433" 
d="M123 1321v113h483v-113h-178v-567h-127v567h-178zM1143 1434h168v-680h-123v448l-141 -448h-113l-146 450v-450h-122v680h165l160 -502z" />
    <glyph glyph-name="oneeighth" unicode="&#x215b;" horiz-adv-x="1691" 
d="M1081 1505l146 -61l-776 -1546l-144 59zM440 573h-166v641q-42 -40 -90.5 -65.5t-130.5 -50.5l-43 149q103 32 165 72.5t122 114.5h143v-861zM1513 461q60 -31 96 -89.5t36 -125.5q0 -114 -88 -189t-222 -75q-132 0 -219.5 75t-87.5 189q0 68 35.5 126t95.5 89
q-106 57 -106 178q0 101 81 170.5t201 69.5q121 0 204 -69.5t83 -170.5q0 -119 -109 -178zM1335 735q-54 0 -86 -28.5t-32 -75.5q0 -51 31 -79t87 -28q57 0 89 28t32 79q0 47 -33 75.5t-88 28.5zM1335 135q66 0 105 34t39 91t-38.5 91t-105.5 34q-64 0 -102.5 -34t-38.5 -91
t38.5 -91t102.5 -34z" />
    <glyph glyph-name="threeeighths" unicode="&#x215c;" horiz-adv-x="1841" 
d="M1231 1505l145 -61l-776 -1546l-143 59zM651 852q0 -130 -87 -213.5t-224 -83.5q-140 0 -229 80.5t-101 218.5l164 23q15 -168 166 -168q66 0 105.5 38.5t39.5 104.5q0 137 -153 137h-142v105l252 186h-376v154h567l2 -166l-232 -170q114 -5 181 -71t67 -175zM1663 461
q60 -31 95.5 -89t35.5 -126q0 -114 -88 -189t-221 -75q-132 0 -219.5 75t-87.5 189q0 68 35.5 126t95.5 89q-107 58 -107 178q0 101 81.5 170.5t201.5 69.5q121 0 204 -69.5t83 -170.5q0 -119 -109 -178zM1485 735q-54 0 -86.5 -28.5t-32.5 -75.5q0 -51 31.5 -79t87.5 -28
q57 0 89 28t32 79q0 47 -33 75.5t-88 28.5zM1485 135q66 0 104.5 34t38.5 91t-38 91t-105 34q-65 0 -103.5 -34t-38.5 -91t38.5 -91t103.5 -34z" />
    <glyph glyph-name="fiveeighths" unicode="&#x215d;" horiz-adv-x="1884" 
d="M1274 1505l145 -61l-776 -1546l-143 59zM705 860q0 -132 -92.5 -218.5t-233.5 -86.5q-123 0 -211 66t-117 180l158 47q38 -139 170 -139q71 0 115.5 42t44.5 109q0 64 -43.5 104t-112.5 40q-87 0 -164 -80l-147 34l84 476h475v-154h-336l-31 -176q61 39 146 39
q126 0 210.5 -81t84.5 -202zM1706 461q60 -31 95.5 -89t35.5 -126q0 -114 -88 -189t-221 -75q-132 0 -219.5 75t-87.5 189q0 68 35.5 126t95.5 89q-107 58 -107 178q0 101 81.5 170.5t201.5 69.5q121 0 204 -69.5t83 -170.5q0 -119 -109 -178zM1528 735q-54 0 -86.5 -28.5
t-32.5 -75.5q0 -51 31.5 -79t87.5 -28q57 0 89 28t32 79q0 47 -33 75.5t-88 28.5zM1528 135q66 0 104.5 34t38.5 91t-38 91t-105 34q-65 0 -103.5 -34t-38.5 -91t38.5 -91t103.5 -34z" />
    <glyph glyph-name="arrowleft" unicode="&#x2190;" 
d="M1208 803v-193h-727q78 -51 148.5 -123t158.5 -182l-157 -127q-225 308 -590 529q184 111 327.5 238.5t262.5 289.5l157 -127q-163 -207 -307 -305h727z" />
    <glyph glyph-name="arrowup" unicode="&#x2191;" 
d="M635 1329q220 -360 532 -590l-123 -151q-114 89 -185.5 158.5t-121.5 142.5v-723h-202v727q-52 -75 -125.5 -146t-184.5 -159l-123 151q322 238 533 590z" />
    <glyph glyph-name="arrowright" unicode="&#x2192;" 
d="M659 1235q119 -162 262.5 -289.5t327.5 -238.5q-365 -221 -590 -529l-157 127q88 110 158.5 182t148.5 123h-727v193h727q-144 98 -307 305z" />
    <glyph glyph-name="arrowdown" unicode="&#x2193;" 
d="M1044 907l123 -151q-312 -230 -532 -590q-211 352 -533 590l123 151q111 -88 184.5 -159t125.5 -146v727h202v-723q50 73 121.5 142.5t185.5 158.5z" />
    <glyph glyph-name="arrowboth" unicode="&#x2194;" 
d="M926 1231q230 -309 590 -524q-189 -115 -330.5 -241t-259.5 -284l-150 121q88 110 162.5 184t155.5 127h-918q81 -53 154 -125.5t164 -185.5l-150 -121q-235 312 -590 525q184 110 325 234t265 290l150 -121q-91 -112 -164.5 -185t-153.5 -126h918q-81 53 -155 126
t-163 185z" />
    <glyph glyph-name="arrowupdn" unicode="&#x2195;" 
d="M733 350q100 147 307 309l117 -143q-310 -237 -522 -592q-212 359 -522 592l116 143q214 -169 312 -317v811q-100 -152 -312 -317l-116 145q316 239 522 590q223 -368 522 -590l-117 -145q-112 89 -183 161t-124 150v-797z" />
    <glyph glyph-name="uni2196" unicode="&#x2196;" 
d="M1106 399l-143 -139l-519 516q32 -167 -2 -430l-194 23q58 382 -43 790q404 -101 790 -43l21 -196q-268 -30 -432 0z" />
    <glyph glyph-name="uni2197" unicode="&#x2197;" 
d="M1065 1159q-101 -408 -43 -790l-195 -23q-34 263 -2 430l-518 -516l-143 139l522 521q-164 -30 -432 0l20 196q387 -58 791 43z" />
    <glyph glyph-name="uni2198" unicode="&#x2198;" 
d="M1022 1079q-58 -382 43 -790q-404 101 -791 43l-20 196q268 30 432 0l-522 521l143 139l518 -516q-32 167 2 430z" />
    <glyph glyph-name="uni2199" unicode="&#x2199;" 
d="M584 528q164 30 432 0l-21 -196q-386 58 -790 -43q101 408 43 790l194 23q34 -263 2 -430l519 516l143 -139z" />
    <glyph glyph-name="uni21B3" unicode="&#x21b3;" 
d="M659 1235q119 -162 262.5 -289.5t327.5 -238.5q-365 -221 -590 -529l-157 127q88 110 158.5 182t148.5 123h-727v824h203v-631h524q-144 98 -307 305z" />
    <glyph glyph-name="partialdiff" unicode="&#x2202;" 
d="M635 1464q251 3 391.5 -194.5t140.5 -552.5q0 -361 -143 -554.5t-410 -193.5q-224 0 -368 148.5t-144 378.5q0 221 141.5 355t364.5 134q179 0 334 -92q-25 185 -103 280.5t-204 92.5q-74 -2 -133 -31.5t-131 -101.5l-146 149q101 95 197.5 137.5t212.5 44.5zM614 168
q320 0 338 491q-93 67 -174 97t-170 30q-129 0 -210 -78.5t-81 -211.5q0 -141 84.5 -234.5t212.5 -93.5z" />
    <glyph glyph-name="emptyset" unicode="&#x2205;" 
d="M1094 1102q151 -154 151 -383q0 -238 -164.5 -396.5t-414.5 -158.5q-176 0 -320 86l-131 -152l-109 88l132 150q-152 158 -152 383q0 156 75.5 283t208 198.5t296.5 71.5q174 0 317 -84l135 155l109 -90zM291 719q0 -134 78 -234l483 555q-84 43 -186 43
q-166 0 -270.5 -103t-104.5 -261zM666 352q165 0 270.5 104.5t105.5 262.5q0 135 -79 233l-486 -555q82 -45 189 -45z" />
    <glyph glyph-name="product" unicode="&#x220f;" 
d="M307 -246v1481h-246v199h1147v-199h-245v-1481h-215v1481h-226v-1481h-215z" />
    <glyph glyph-name="summation" unicode="&#x2211;" 
d="M123 -246v178l551 662l-551 661v179h1024v-199h-733l524 -641l-524 -641h733v-199h-1024z" />
    <glyph glyph-name="minus" unicode="&#x2212;" 
d="M205 590v217h860v-217h-860z" />
    <glyph glyph-name="radical" unicode="&#x221a;" 
d="M307 668h-266v198h414l180 -540l377 1108h217l-500 -1434h-188z" />
    <glyph glyph-name="infinity" unicode="&#x221e;" 
d="M911 1149q145 0 241.5 -133t96.5 -332q0 -202 -96.5 -335.5t-241.5 -133.5q-88 0 -163 63t-113 162q-37 -99 -113 -162t-164 -63q-145 0 -241.5 133.5t-96.5 335.5q0 199 96.5 332t241.5 133q86 0 162.5 -61.5t114.5 -161.5q38 100 114 161.5t162 61.5zM358 403
q74 0 127 75t68 206q-17 131 -71 205t-124 74q-68 0 -114.5 -80.5t-46.5 -198.5q0 -122 46.5 -201.5t114.5 -79.5zM911 403q68 0 115 79.5t47 201.5q0 118 -47 198.5t-115 80.5q-70 0 -123.5 -74t-70.5 -205q15 -131 67.5 -206t126.5 -75z" />
    <glyph glyph-name="integral" unicode="&#x222b;" 
d="M956 1434h160v-199h-153q-127 0 -173.5 -55t-46.5 -207v-983q0 -451 -430 -451h-159v199h153q126 0 172.5 55t46.5 207v983q0 451 430 451z" />
    <glyph glyph-name="approxequal" unicode="&#x2248;" 
d="M272 758l-182 57q35 141 124 218t218 77q51 0 101.5 -16.5t89 -39.5t74.5 -46t72.5 -39.5t68.5 -16.5q57 0 95.5 38t63.5 120l185 -59q-37 -142 -125 -217.5t-219 -75.5q-62 0 -124.5 24.5t-104 54t-90.5 54t-87 24.5q-111 0 -160 -157zM272 334l-182 57q35 141 124 218
t218 77q51 0 101.5 -16.5t89 -39.5t74.5 -46t72.5 -39.5t68.5 -16.5q57 0 95.5 38t63.5 120l185 -59q-37 -142 -125 -217.5t-219 -75.5q-51 0 -101 16.5t-89 39.5t-75 46t-72.5 39.5t-68.5 16.5q-111 0 -160 -158z" />
    <glyph glyph-name="notequal" unicode="&#x2260;" 
d="M1065 813h-268l-125 -233h393v-218h-510l-141 -266l-146 74l103 192h-166v218h280l125 233h-405v217h520l133 250l146 -78l-93 -172h154v-217z" />
    <glyph glyph-name="lessequal" unicode="&#x2264;" 
d="M1092 1192l-682 -356l682 -357l-99 -176l-817 426v213l819 426zM176 0v199h903v-199h-903z" />
    <glyph glyph-name="greaterequal" unicode="&#x2265;" 
d="M274 1368l820 -426v-213l-818 -426l-98 176l682 357l-682 356zM190 0v199h904v-199h-904z" />
    <glyph glyph-name="lozenge" unicode="&#x25ca;" horiz-adv-x="1392" 
d="M594 0l-471 717l471 717h205l471 -717l-471 -717h-205zM696 199l334 518l-334 518l-334 -518z" />
    <glyph glyph-name="uniF8FF" unicode="&#xf8ff;" horiz-adv-x="1404" 
d="M102 -10v866q0 127 45.5 238t125 190t190.5 124.5t237 45.5q128 0 240 -45.5t191.5 -124.5t125.5 -190t46 -238v-866h-58l-133 133l-139 -133l-129 133l-146 -133l-141 133l-129 -133l-137 133l-135 -133h-54zM442 629q60 0 103 41.5t43 101.5q0 62 -42.5 105t-103.5 43
q-60 0 -102.5 -43.5t-42.5 -104.5q0 -59 42.5 -101t102.5 -42zM963 629q60 0 103.5 42.5t43.5 100.5q0 62 -43 105t-104 43q-60 0 -102 -43t-42 -105q0 -58 42.5 -100.5t101.5 -42.5z" />
    <glyph glyph-name="uniFEFF" unicode="&#xfeff;" horiz-adv-x="0" 
 />
    <glyph glyph-name="E.ss01" horiz-adv-x="1171" 
d="M164 0v1434h926v-199h-709v-385h641v-193h-641v-458h709v-199h-926z" />
    <glyph glyph-name="Eacute.ss01" horiz-adv-x="1171" 
d="M502 1536l180 272h279l-246 -272h-213zM164 0v1434h926v-199h-709v-385h641v-193h-641v-458h709v-199h-926z" />
    <glyph glyph-name="Ebreve.ss01" horiz-adv-x="1171" 
d="M629 1516q-122 0 -200.5 73t-78.5 191h135q11 -47 49 -76t95 -29t94.5 29t48.5 76h135q0 -119 -78 -191.5t-200 -72.5zM164 0v1434h926v-199h-709v-385h641v-193h-641v-458h709v-199h-926z" />
    <glyph glyph-name="Ecaron.ss01" horiz-adv-x="1171" 
d="M778 1536h-299l-143 180l149 113l144 -182l143 182l150 -113zM1090 1235h-709v-385h641v-193h-641v-458h709v-199h-926v1434h926v-199z" />
    <glyph glyph-name="uni0228.ss01" horiz-adv-x="1171" 
d="M1090 1235h-709v-385h641v-193h-641v-458h709v-199h-416l-58 -98q30 6 64 6q90 0 151.5 -50t61.5 -126q0 -98 -67.5 -158.5t-182.5 -60.5q-88 0 -157.5 37.5t-104.5 103.5l121 80q28 -45 59.5 -63.5t81.5 -18.5q49 0 75.5 22t24.5 58q-2 33 -27.5 51t-72.5 18
q-49 0 -100 -32l-111 59l98 172h-366v1434h926v-199z" />
    <glyph glyph-name="Ecircumflex.ss01" horiz-adv-x="1171" 
d="M629 1677l-144 -182l-149 113l143 180h299l144 -180l-150 -113zM1090 1235h-709v-385h641v-193h-641v-458h709v-199h-926v1434h926v-199z" />
    <glyph glyph-name="uni1EC6.ss01" horiz-adv-x="1171" 
d="M629 1677l-144 -182l-149 113l143 180h299l144 -180l-150 -113zM1090 1235h-709v-385h641v-193h-641v-458h709v-199h-926v1434h926v-199zM506 -346v244h244v-244h-244z" />
    <glyph glyph-name="Edieresis.ss01" horiz-adv-x="1171" 
d="M291 1536v233h233v-233h-233zM733 1536v233h234v-233h-234zM164 0v1434h926v-199h-709v-385h641v-193h-641v-458h709v-199h-926z" />
    <glyph glyph-name="Edotaccent.ss01" horiz-adv-x="1171" 
d="M506 1536v244h244v-244h-244zM164 0v1434h926v-199h-709v-385h641v-193h-641v-458h709v-199h-926z" />
    <glyph glyph-name="uni1EB8.ss01" horiz-adv-x="1171" 
d="M164 0v1434h926v-199h-709v-385h641v-193h-641v-458h709v-199h-926zM506 -346v244h244v-244h-244z" />
    <glyph glyph-name="Egrave.ss01" horiz-adv-x="1171" 
d="M735 1536h-213l-246 272h279zM164 0v1434h926v-199h-709v-385h641v-193h-641v-458h709v-199h-926z" />
    <glyph glyph-name="Emacron.ss01" horiz-adv-x="1171" 
d="M281 1536v164h696v-164h-696zM164 0v1434h926v-199h-709v-385h641v-193h-641v-458h709v-199h-926z" />
    <glyph glyph-name="Eogonek.ss01" horiz-adv-x="1171" 
d="M1055 -215l71 -152q-143 -69 -256 -69q-117 0 -186.5 52t-69.5 140q0 141 189 244h-639v1434h926v-199h-709v-385h641v-193h-641v-458h709v-199h-89q-122 -71 -169.5 -117.5t-47.5 -95.5q0 -61 86 -61q81 0 185 59z" />
    <glyph glyph-name="uni018E.ss01" horiz-adv-x="1171" 
d="M1008 0h-926v199h709v458h-641v193h641v385h-709v199h926v-1434z" />
    <glyph glyph-name="uni1EBC.ss01" horiz-adv-x="1171" 
d="M770 1526q-54 0 -145 41t-121 41q-55 0 -70 -72h-141q5 113 57 175.5t144 62.5q54 0 144 -40t120 -40q54 0 69 69h142q-4 -114 -57 -175.5t-142 -61.5zM164 0v1434h926v-199h-709v-385h641v-193h-641v-458h709v-199h-926z" />
    <glyph glyph-name="F.ss01" horiz-adv-x="1150" 
d="M164 0v1434h926v-199h-709v-420h641v-199h-641v-616h-217z" />
    <glyph glyph-name="G.ss01" horiz-adv-x="1337" 
d="M608 737h658v-235q0 -100 -37.5 -194t-107 -170.5t-181.5 -122.5t-250 -46q-190 0 -329 97.5t-209 265t-70 385.5t70 385.5t209 264.5t329 97q217 0 369.5 -128.5t195.5 -346.5l-206 -43q-36 157 -131 238.5t-228 81.5q-188 0 -289.5 -148.5t-101.5 -400.5t101.5 -400.5
t289.5 -148.5q90 0 161 30t113 79t63.5 106.5t21.5 118.5v37h-441v198z" />
    <glyph glyph-name="Gbreve.ss01" horiz-adv-x="1337" 
d="M690 1546q-122 0 -200 72.5t-78 191.5h135q11 -47 48.5 -75.5t94.5 -28.5t95 28.5t49 75.5h135q0 -118 -78.5 -191t-200.5 -73zM608 737h658v-235q0 -100 -37.5 -194t-107 -170.5t-181.5 -122.5t-250 -46q-190 0 -329 97.5t-209 265t-70 385.5t70 385.5t209 264.5t329 97
q217 0 369.5 -128.5t195.5 -346.5l-206 -43q-36 157 -131 238.5t-228 81.5q-188 0 -289.5 -148.5t-101.5 -400.5t101.5 -400.5t289.5 -148.5q90 0 161 30t113 79t63.5 106.5t21.5 118.5v37h-441v198z" />
    <glyph glyph-name="Gcircumflex.ss01" horiz-adv-x="1337" 
d="M690 1708l-143 -182l-150 112l144 181h299l143 -181l-149 -112zM608 737h658v-235q0 -100 -37.5 -194t-107 -170.5t-181.5 -122.5t-250 -46q-190 0 -329 97.5t-209 265t-70 385.5t70 385.5t209 264.5t329 97q217 0 369.5 -128.5t195.5 -346.5l-206 -43
q-36 157 -131 238.5t-228 81.5q-188 0 -289.5 -148.5t-101.5 -400.5t101.5 -400.5t289.5 -148.5q90 0 161 30t113 79t63.5 106.5t21.5 118.5v37h-441v198z" />
    <glyph glyph-name="Gcommaaccent.ss01" horiz-adv-x="1337" 
d="M608 737h658v-235q0 -100 -37.5 -194t-107 -170.5t-181.5 -122.5t-250 -46q-190 0 -329 97.5t-209 265t-70 385.5t70 385.5t209 264.5t329 97q217 0 369.5 -128.5t195.5 -346.5l-206 -43q-36 157 -131 238.5t-228 81.5q-188 0 -289.5 -148.5t-101.5 -400.5t101.5 -400.5
t289.5 -148.5q90 0 161 30t113 79t63.5 106.5t21.5 118.5v37h-441v198zM567 -362v229h246v-195q0 -102 -62 -163.5t-167 -69.5v108q38 7 52.5 27.5t14.5 63.5h-84z" />
    <glyph glyph-name="Gdotaccent.ss01" horiz-adv-x="1337" 
d="M811 1810v-243h-244v243h244zM608 737h658v-235q0 -100 -37.5 -194t-107 -170.5t-181.5 -122.5t-250 -46q-190 0 -329 97.5t-209 265t-70 385.5t70 385.5t209 264.5t329 97q217 0 369.5 -128.5t195.5 -346.5l-206 -43q-36 157 -131 238.5t-228 81.5q-188 0 -289.5 -148.5
t-101.5 -400.5t101.5 -400.5t289.5 -148.5q90 0 161 30t113 79t63.5 106.5t21.5 118.5v37h-441v198z" />
    <glyph glyph-name="J.ss01" horiz-adv-x="1130" 
d="M231 434q19 -140 80 -203t178 -63q273 0 273 348v918h215v-930q0 -257 -131.5 -396t-356.5 -139q-207 0 -325.5 111t-143.5 326z" />
    <glyph glyph-name="Jcircumflex.ss01" horiz-adv-x="1130" 
d="M1020 1788l143 -180l-149 -113l-144 182l-143 -182l-149 113l143 180h299zM762 516v918h215v-930q0 -257 -131.5 -396t-356.5 -139q-207 0 -325.5 111t-143.5 326l211 28q19 -140 80 -203t178 -63q273 0 273 348z" />
    <glyph glyph-name="M.ss01" horiz-adv-x="1720" 
d="M1264 1434h292v-1434h-198v1122l-430 -1122h-137l-429 1122v-1122h-198v1434h293l401 -1104z" />
    <glyph glyph-name="Q.ss01" horiz-adv-x="1380" 
d="M1298 717q0 -198 -58 -355.5t-173.5 -259t-275.5 -125.5q10 -159 270 -159v-189q-230 0 -361.5 93t-134.5 260q-153 29 -263 131t-165 257t-55 347q0 218 70 385.5t209 264.5t329 97t329 -97t209 -264.5t70 -385.5zM690 168q188 0 289.5 148.5t101.5 400.5t-101.5 400.5
t-289.5 148.5t-289.5 -148.5t-101.5 -400.5t101.5 -400.5t289.5 -148.5z" />
    <glyph glyph-name="R.ss01" horiz-adv-x="1339" 
d="M1257 0h-233l-330 594h-313v-594h-217v1434h604q206 0 331.5 -117t125.5 -303q0 -147 -81 -253.5t-222 -146.5zM381 1235v-442h367q125 0 193.5 56t68.5 165t-68.5 165t-193.5 56h-367z" />
    <glyph glyph-name="Racute.ss01" horiz-adv-x="1339" 
d="M961 1808l-246 -272h-213l180 272h279zM1257 0h-233l-330 594h-313v-594h-217v1434h604q206 0 331.5 -117t125.5 -303q0 -147 -81 -253.5t-222 -146.5zM381 1235v-442h367q125 0 193.5 56t68.5 165t-68.5 165t-193.5 56h-367z" />
    <glyph glyph-name="Rcaron.ss01" horiz-adv-x="1339" 
d="M778 1536h-299l-143 180l149 113l144 -182l143 182l150 -113zM1257 0h-233l-330 594h-313v-594h-217v1434h604q206 0 331.5 -117t125.5 -303q0 -147 -81 -253.5t-222 -146.5zM381 1235v-442h367q125 0 193.5 56t68.5 165t-68.5 165t-193.5 56h-367z" />
    <glyph glyph-name="Rcommaaccent.ss01" horiz-adv-x="1339" 
d="M922 614l335 -614h-233l-330 594h-313v-594h-217v1434h604q206 0 331.5 -117t125.5 -303q0 -147 -81 -253.5t-222 -146.5zM381 1235v-442h367q125 0 193.5 56t68.5 165t-68.5 165t-193.5 56h-367zM547 -332v230h246v-195q0 -102 -62.5 -163.5t-167.5 -69.5v108
q38 7 53 27t15 63h-84z" />
    <glyph glyph-name="W.ss01" horiz-adv-x="1851" 
d="M1581 1434h209l-287 -1434h-225l-352 1059l-353 -1059h-225l-287 1434h209l219 -1063l353 1063h168l352 -1063z" />
    <glyph glyph-name="Wacute.ss01" horiz-adv-x="1851" 
d="M1260 1808l-246 -272h-213l180 272h279zM1581 1434h209l-287 -1434h-225l-352 1059l-353 -1059h-225l-287 1434h209l219 -1063l353 1063h168l352 -1063z" />
    <glyph glyph-name="Wcircumflex.ss01" horiz-adv-x="1851" 
d="M928 1677l-144 -182l-149 113l143 180h299l144 -180l-150 -113zM1581 1434h209l-287 -1434h-225l-352 1059l-353 -1059h-225l-287 1434h209l219 -1063l353 1063h168l352 -1063z" />
    <glyph glyph-name="Wdieresis.ss01" horiz-adv-x="1851" 
d="M823 1769v-233h-233v233h233zM1266 1769v-233h-234v233h234zM1581 1434h209l-287 -1434h-225l-352 1059l-353 -1059h-225l-287 1434h209l219 -1063l353 1063h168l352 -1063z" />
    <glyph glyph-name="Wgrave.ss01" horiz-adv-x="1851" 
d="M1034 1536h-213l-246 272h279zM1581 1434h209l-287 -1434h-225l-352 1059l-353 -1059h-225l-287 1434h209l219 -1063l353 1063h168l352 -1063z" />
    <glyph glyph-name="Adieresis.ss03" horiz-adv-x="1431" 
d="M1194 0l-150 369h-657l-149 -369h-218l482 1171h53v127l55 136h211l49 -121v-142h60l481 -1171h-217zM520 1434v-228h-233v228h233zM1139 1434v-228h-234v228h234zM463 555h506l-252 621z" />
    <glyph glyph-name="Odieresis.ss03" horiz-adv-x="1380" 
d="M690 -31q-190 0 -329 97.5t-209 265t-70 385.5q0 266 104 454h185v203q139 90 319 90q181 0 320 -90v-203h184q104 -188 104 -454q0 -218 -70 -385.5t-209 -265t-329 -97.5zM102 1206v228h234v-228h-234zM1044 1206v228h234v-228h-234zM690 168q188 0 289.5 148.5
t101.5 400.5t-101.5 400.5t-289.5 148.5t-289.5 -148.5t-101.5 -400.5t101.5 -400.5t289.5 -148.5z" />
    <glyph glyph-name="Udieresis.ss03" horiz-adv-x="1445" 
d="M154 510v924h141v-263h76v-649q0 -179 94 -266.5t260 -87.5q164 0 258 87.5t94 266.5v649h86v263h129v-924q0 -170 -74 -293.5t-201 -185.5t-292 -62q-166 0 -294 61.5t-202.5 185.5t-74.5 294zM330 1206v228h233v-228h-233zM895 1206v228h233v-228h-233z" />
    <glyph glyph-name="i.loclTRK" horiz-adv-x="491" 
d="M123 1229v244h244v-244h-244zM143 0v1085h205v-1085h-205z" />
    <glyph glyph-name="a.ordn" horiz-adv-x="696" 
d="M674 911l16 -127q-49 -10 -88 -10q-96 0 -125 84q-60 -92 -207 -92q-101 0 -164 53t-63 139q0 82 51 128t168 71q105 22 140.5 40t35.5 50q0 33 -31 53.5t-81 20.5q-60 0 -101.5 -31.5t-48.5 -85.5l-135 21q14 98 93.5 160.5t191.5 62.5q118 0 186 -58.5t68 -158.5v-270
q0 -56 43 -56q27 0 51 6zM438 1006v104q-10 -15 -35.5 -26t-99.5 -33q-68 -20 -93.5 -38.5t-25.5 -47.5q0 -34 27 -53t74 -19q66 0 109.5 32t43.5 81z" />
    <glyph glyph-name="b.ordn" horiz-adv-x="727" 
d="M391 1448q132 0 213.5 -95t81.5 -249t-81.5 -249t-213.5 -95q-110 0 -176 69v-51h-143v860h147v-252q65 62 172 62zM375 897q75 0 119.5 55.5t44.5 151.5t-44.5 151.5t-121.5 55.5q-69 0 -111.5 -41.5t-42.5 -108.5v-114q0 -66 43 -108t113 -42z" />
    <glyph glyph-name="c.ordn" horiz-adv-x="677" 
d="M354 760q-138 0 -225.5 94t-87.5 250t87.5 250t225.5 94q109 0 190.5 -62.5t102.5 -168.5l-143 -31q-13 59 -53.5 92t-96.5 33q-78 0 -122 -56t-44 -151t44 -151t122 -56q62 0 101 35.5t51 99.5l141 -28q-18 -114 -99 -179t-194 -65z" />
    <glyph glyph-name="d.ordn" horiz-adv-x="727" 
d="M508 1638h147v-860h-143v51q-66 -69 -176 -69q-132 0 -213.5 95t-81.5 249t81.5 249t213.5 95q107 0 172 -62v252zM508 1047v114q0 67 -42.5 108.5t-111.5 41.5q-77 0 -121.5 -55.5t-44.5 -151.5t44.5 -151.5t119.5 -55.5q70 0 113 42t43 108z" />
    <glyph glyph-name="e.ordn" horiz-adv-x="692" 
d="M184 1051q11 -77 52 -120.5t108 -43.5q58 0 100 27t78 85l107 -79q-46 -77 -120 -118.5t-165 -41.5q-139 0 -221 93.5t-82 250.5q0 155 83 249.5t220 94.5t222 -94.5t85 -249.5v-53h-467zM344 1321q-70 0 -114 -45t-46 -113h320q-17 158 -160 158z" />
    <glyph glyph-name="f.ordn" horiz-adv-x="518" 
d="M150 778v514h-146v138h146v65q0 82 50 131t136 49q82 0 182 -53l-59 -119q-67 37 -109 37q-53 0 -53 -57v-53h195v-138h-195v-514h-147z" />
    <glyph glyph-name="g.ordn" horiz-adv-x="704" 
d="M455 858q106 -11 162.5 -56.5t56.5 -123.5q0 -95 -83 -145t-237 -50q-153 0 -238 50t-85 137q0 37 22 73.5t66 63.5q-62 43 -62 113q0 71 78 118q-67 67 -67 164q0 105 79.5 175.5t204.5 70.5q60 0 121 -21q37 115 170 150l45 -111q-107 -36 -129 -90q78 -72 78 -174
q0 -105 -80.5 -175.5t-204.5 -70.5q-73 0 -139 29q-33 -16 -33 -47q0 -53 117 -64zM352 1327q-65 0 -106 -36t-41 -89t41 -88t106 -35q64 0 106 35t42 88t-42 89t-106 36zM354 606q183 0 183 78q0 31 -26 46t-79 20l-196 18h-3q-30 -12 -46.5 -34t-16.5 -48q0 -80 184 -80z
" />
    <glyph glyph-name="h.ordn" horiz-adv-x="735" 
d="M410 1448q110 0 184 -75.5t74 -201.5v-393h-148v375q0 78 -37 118t-108 40q-70 0 -113 -43.5t-43 -114.5v-375h-147v860h147v-266q70 76 191 76z" />
    <glyph glyph-name="i.ordn" horiz-adv-x="284" 
d="M61 1509v158h160v-158h-160zM70 778v652h147v-652h-147z" />
    <glyph glyph-name="j.ordn" horiz-adv-x="466" 
d="M389 1667v-158h-160v158h160zM395 1430v-639q0 -111 -67 -178.5t-174 -67.5q-86 0 -174 28l40 129q64 -20 113 -20q55 0 85 30t30 89v491h-217v138h364z" />
    <glyph glyph-name="k.ordn" horiz-adv-x="673" 
d="M502 778l-191 285l-92 -100v-185h-147v860h147v-489l240 281h188l-244 -273l265 -379h-166z" />
    <glyph glyph-name="l.ordn" horiz-adv-x="290" 
d="M72 778v860h147v-860h-147z" />
    <glyph glyph-name="m.ordn" horiz-adv-x="1081" 
d="M762 1448q117 0 184.5 -72t67.5 -196v-402h-148v404q0 64 -32 96.5t-89 32.5q-60 0 -94.5 -35t-34.5 -96v-402h-147v404q0 65 -32.5 97t-88.5 32q-59 0 -94 -34t-35 -97v-402h-147v652h141v-56q57 74 170 74q56 0 105.5 -24t80.5 -66q33 42 84 66t109 24z" />
    <glyph glyph-name="n.ordn" horiz-adv-x="735" 
d="M410 1448q110 0 184 -75.5t74 -201.5v-393h-148v375q0 78 -37 118t-108 40q-70 0 -113 -43.5t-43 -114.5v-375h-147v652h143v-64q31 38 83 60t112 22z" />
    <glyph glyph-name="o.ordn" horiz-adv-x="708" 
d="M354 760q-142 0 -227.5 93.5t-85.5 250.5t85.5 250.5t227.5 93.5t228 -93.5t86 -250.5t-86 -250.5t-228 -93.5zM354 897q81 0 123.5 56t42.5 151t-42.5 151t-123.5 56t-123.5 -56t-42.5 -151t42.5 -151t123.5 -56z" />
    <glyph glyph-name="p.ordn" horiz-adv-x="720" 
d="M389 1448q131 0 211 -94.5t80 -249.5q0 -154 -79.5 -249t-211.5 -95q-107 0 -170 63v-321h-147v928h143v-44q69 62 174 62zM373 897q72 0 115.5 56t43.5 151t-43.5 151t-115.5 56q-66 0 -110 -43t-44 -107v-114q0 -65 43.5 -107.5t110.5 -42.5z" />
    <glyph glyph-name="q.ordn" horiz-adv-x="720" 
d="M504 1430h145v-928h-147v323q-62 -65 -172 -65q-130 0 -209.5 94.5t-79.5 249.5q0 154 79.5 249t209.5 95q105 0 174 -62v44zM346 897q67 0 111.5 42.5t44.5 107.5v114q0 65 -44.5 108.5t-111.5 43.5q-72 0 -115 -57.5t-43 -151.5q0 -95 43.5 -151t114.5 -56z" />
    <glyph glyph-name="r.ordn" horiz-adv-x="495" 
d="M354 1448q67 0 135 -39l-61 -129q-53 31 -102 31q-50 0 -78.5 -34t-28.5 -95v-404h-147v652h135v-58q21 35 60 55.5t87 20.5z" />
    <glyph glyph-name="s.ordn" horiz-adv-x="665" 
d="M354 760q-130 0 -218.5 63t-108.5 168l133 33q15 -68 65.5 -102.5t128.5 -34.5q66 0 103 19.5t37 56.5q0 35 -44 52.5t-107 26.5t-126 24.5t-107 60t-44 118.5q0 89 71.5 146t179.5 57q102 0 187 -56t108 -145l-131 -37q-13 49 -59.5 80t-104.5 31q-45 0 -77.5 -22
t-32.5 -54q0 -25 23.5 -40t61.5 -23t83.5 -14.5t91 -19t83.5 -32t61.5 -57.5t23.5 -92q0 -96 -76.5 -151.5t-204.5 -55.5z" />
    <glyph glyph-name="t.ordn" horiz-adv-x="524" 
d="M150 1595l147 43v-208h195v-138h-195v-325q0 -70 65 -70q48 0 119 25l37 -134q-90 -28 -168 -28q-89 0 -144.5 53t-55.5 139v340h-146v138h146v165z" />
    <glyph glyph-name="u.ordn" horiz-adv-x="714" 
d="M496 1430h147v-652h-141v66q-29 -38 -77.5 -61t-100.5 -23q-115 0 -185.5 75t-70.5 199v396h147v-371q0 -80 35.5 -121t101.5 -41t105 44.5t39 119.5v369z" />
    <glyph glyph-name="v.ordn" horiz-adv-x="684" 
d="M270 778l-260 652h164l168 -459l166 459h166l-260 -652h-144z" />
    <glyph glyph-name="w.ordn" horiz-adv-x="942" 
d="M788 1430h144l-168 -652h-166l-127 418l-127 -418h-166l-168 652h144l114 -457l142 457h125l137 -457z" />
    <glyph glyph-name="x.ordn" horiz-adv-x="649" 
d="M639 778h-168l-145 230l-148 -230h-168l223 334l-213 318h168l138 -218l135 218h168l-213 -318z" />
    <glyph glyph-name="y.ordn" horiz-adv-x="677" 
d="M504 1430h164l-326 -738q-27 -59 -65.5 -84.5t-106.5 -25.5q-44 0 -115 12l21 131q39 -6 80 -6q27 0 41 8.5t24 34.5l41 98l-252 570h164l164 -394z" />
    <glyph glyph-name="z.ordn" horiz-adv-x="681" 
d="M51 778v123l373 397h-361v132h555v-123l-372 -398h385v-131h-580z" />
    <glyph glyph-name="g.ss01" horiz-adv-x="1228" 
d="M881 1085h204v-1146q0 -180 -130.5 -305.5t-327.5 -125.5q-175 0 -298.5 88.5t-166.5 229.5l188 70q71 -203 277 -203q115 0 184.5 76.5t69.5 179.5v135q-54 -53 -134.5 -84t-171.5 -31q-220 0 -356.5 159.5t-136.5 414.5t136.5 414t356.5 159q99 0 178.5 -30.5
t127.5 -84.5v84zM592 158q133 0 211 80.5t78 216.5v176q0 137 -76.5 217t-210.5 80q-144 0 -225.5 -102.5t-81.5 -282.5t81 -282.5t224 -102.5z" />
    <glyph glyph-name="gbreve.ss01" horiz-adv-x="1228" 
d="M575 1198q-122 0 -200 72.5t-78 191.5h135q11 -47 48.5 -75.5t94.5 -28.5t95 28.5t49 75.5h135q0 -118 -78.5 -191t-200.5 -73zM881 1085h204v-1146q0 -180 -130.5 -305.5t-327.5 -125.5q-175 0 -298.5 88.5t-166.5 229.5l188 70q71 -203 277 -203q115 0 184.5 76.5
t69.5 179.5v135q-54 -53 -134.5 -84t-171.5 -31q-220 0 -356.5 159.5t-136.5 414.5t136.5 414t356.5 159q99 0 178.5 -30.5t127.5 -84.5v84zM592 158q133 0 211 80.5t78 216.5v176q0 137 -76.5 217t-210.5 80q-144 0 -225.5 -102.5t-81.5 -282.5t81 -282.5t224 -102.5z" />
    <glyph glyph-name="gcircumflex.ss01" horiz-adv-x="1228" 
d="M575 1360l-143 -182l-149 112l143 180h299l143 -180l-149 -112zM881 1085h204v-1146q0 -180 -130.5 -305.5t-327.5 -125.5q-175 0 -298.5 88.5t-166.5 229.5l188 70q71 -203 277 -203q115 0 184.5 76.5t69.5 179.5v135q-54 -53 -134.5 -84t-171.5 -31
q-220 0 -356.5 159.5t-136.5 414.5t136.5 414t356.5 159q99 0 178.5 -30.5t127.5 -84.5v84zM592 158q133 0 211 80.5t78 216.5v176q0 137 -76.5 217t-210.5 80q-144 0 -225.5 -102.5t-81.5 -282.5t81 -282.5t224 -102.5z" />
    <glyph glyph-name="gcommaaccent.ss01" horiz-adv-x="1228" 
d="M698 1448v-229h-245v194q0 102 62 164t167 70v-109q-38 -7 -53 -27t-15 -63h84zM881 1085h204v-1146q0 -180 -130.5 -305.5t-327.5 -125.5q-175 0 -298.5 88.5t-166.5 229.5l188 70q71 -203 277 -203q115 0 184.5 76.5t69.5 179.5v135q-54 -53 -134.5 -84t-171.5 -31
q-220 0 -356.5 159.5t-136.5 414.5t136.5 414t356.5 159q99 0 178.5 -30.5t127.5 -84.5v84zM592 158q133 0 211 80.5t78 216.5v176q0 137 -76.5 217t-210.5 80q-144 0 -225.5 -102.5t-81.5 -282.5t81 -282.5t224 -102.5z" />
    <glyph glyph-name="gdotaccent.ss01" horiz-adv-x="1228" 
d="M696 1462v-243h-243v243h243zM881 1085h204v-1146q0 -180 -130.5 -305.5t-327.5 -125.5q-175 0 -298.5 88.5t-166.5 229.5l188 70q71 -203 277 -203q115 0 184.5 76.5t69.5 179.5v135q-54 -53 -134.5 -84t-171.5 -31q-220 0 -356.5 159.5t-136.5 414.5t136.5 414
t356.5 159q99 0 178.5 -30.5t127.5 -84.5v84zM592 158q133 0 211 80.5t78 216.5v176q0 137 -76.5 217t-210.5 80q-144 0 -225.5 -102.5t-81.5 -282.5t81 -282.5t224 -102.5z" />
    <glyph glyph-name="j.ss01" horiz-adv-x="890" 
d="M522 1229v244h244v-244h-244zM313 -492q-158 0 -263 82.5t-152 229.5l194 65q62 -188 221 -188q230 0 230 311v889h-490v188h695v-1087q0 -227 -116.5 -358.5t-318.5 -131.5z" />
    <glyph glyph-name="uni0237.ss01" horiz-adv-x="890" 
d="M313 -492q-158 0 -263 82.5t-152 229.5l194 65q62 -188 221 -188q230 0 230 311v889h-490v188h695v-1087q0 -227 -116.5 -358.5t-318.5 -131.5z" />
    <glyph glyph-name="jcircumflex.ss01" horiz-adv-x="890" 
d="M795 1440l143 -180l-150 -113l-143 182l-143 -182l-150 113l144 180h299zM53 897v188h695v-1087q0 -227 -116.5 -358.5t-318.5 -131.5q-158 0 -263 82.5t-152 229.5l194 65q62 -188 221 -188q230 0 230 311v889h-490z" />
    <glyph glyph-name="r.ss01" horiz-adv-x="927" 
d="M567 1116q152 0 244 -102.5t107 -288.5l-205 -29q-13 127 -55 179.5t-130 52.5t-134 -65.5t-46 -188.5v-674h-205v1085h195v-96q28 56 90.5 91.5t138.5 35.5z" />
    <glyph glyph-name="racute.ss01" horiz-adv-x="927" 
d="M776 1491l-246 -272h-213l181 272h278zM567 1116q152 0 244 -102.5t107 -288.5l-205 -29q-13 127 -55 179.5t-130 52.5t-134 -65.5t-46 -188.5v-674h-205v1085h195v-96q28 56 90.5 91.5t138.5 35.5z" />
    <glyph glyph-name="rcaron.ss01" horiz-adv-x="927" 
d="M594 1219h-299l-143 180l149 112l143 -182l144 182l149 -112zM567 1116q152 0 244 -102.5t107 -288.5l-205 -29q-13 127 -55 179.5t-130 52.5t-134 -65.5t-46 -188.5v-674h-205v1085h195v-96q28 56 90.5 91.5t138.5 35.5z" />
    <glyph glyph-name="rcommaaccent.ss01" horiz-adv-x="927" 
d="M567 1116q152 0 244 -102.5t107 -288.5l-205 -29q-13 127 -55 179.5t-130 52.5t-134 -65.5t-46 -188.5v-674h-205v1085h195v-96q28 56 90.5 91.5t138.5 35.5zM123 -332v230h246v-195q0 -102 -62.5 -163.5t-167.5 -69.5v108q38 7 53 27t15 63h-84z" />
    <glyph glyph-name="t.ss01" horiz-adv-x="856" 
d="M262 1434h205v-349h336v-188h-336v-608q0 -63 30.5 -97t86.5 -34q49 0 91.5 9t115.5 36l55 -185q-89 -29 -147 -39t-126 -10q-138 0 -224.5 82.5t-86.5 214.5v631h-252v188h252v349z" />
    <glyph glyph-name="tbar.ss01" horiz-adv-x="856" 
d="M791 203l55 -185q-89 -29 -147 -39t-126 -10q-138 0 -224.5 82.5t-86.5 214.5v223h-252v175h252v233h-252v188h252v349h205v-349h336v-188h-336v-233h334v-175h-334v-200q0 -63 30.5 -97t86.5 -34q49 0 91.5 9t115.5 36z" />
    <glyph glyph-name="tcaron.ss01" horiz-adv-x="856" 
d="M621 1159v109q38 7 52.5 27t14.5 63h-84v229h246v-194q0 -102 -62 -164t-167 -70zM262 1434h205v-349h336v-188h-336v-608q0 -63 30.5 -97t86.5 -34q49 0 91.5 9t115.5 36l55 -185q-89 -29 -147 -39t-126 -10q-138 0 -224.5 82.5t-86.5 214.5v631h-252v188h252v349z" />
    <glyph glyph-name="uni0163.ss01" horiz-adv-x="856" 
d="M602 -123q90 0 151.5 -50t61.5 -126q0 -98 -67.5 -158.5t-182.5 -60.5q-88 0 -157.5 37.5t-104.5 103.5l121 80q28 -45 59.5 -63.5t81.5 -18.5q49 0 76 22t25 58q-2 33 -28 51.5t-73 18.5t-100 -33l-111 59l109 189q-93 30 -147 104t-54 176v631h-252v188h252v349h205
v-349h336v-188h-336v-608q0 -63 30.5 -97t86.5 -34q49 0 91.5 9t115.5 36l55 -185q-147 -46 -250 -49l-57 -98q30 6 63 6z" />
    <glyph glyph-name="uni021B.ss01" horiz-adv-x="856" 
d="M262 1434h205v-349h336v-188h-336v-608q0 -63 30.5 -97t86.5 -34q49 0 91.5 9t115.5 36l55 -185q-89 -29 -147 -39t-126 -10q-138 0 -224.5 82.5t-86.5 214.5v631h-252v188h252v349zM444 -561v108q38 7 53 27.5t15 63.5h-84v229h246v-195q0 -102 -62.5 -163.5
t-167.5 -69.5z" />
    <glyph glyph-name="uni1E6D.ss01" horiz-adv-x="856" 
d="M262 1434h205v-349h336v-188h-336v-608q0 -63 30.5 -97t86.5 -34q49 0 91.5 9t115.5 36l55 -185q-89 -29 -147 -39t-126 -10q-138 0 -224.5 82.5t-86.5 214.5v631h-252v188h252v349zM428 -377v244h244v-244h-244z" />
    <glyph glyph-name="a.ss02" horiz-adv-x="1228" 
d="M881 1085h204v-1085h-204v84q-54 -53 -134.5 -84t-171.5 -31q-220 0 -356.5 159.5t-136.5 414.5t136.5 414t356.5 159q99 0 178.5 -30.5t127.5 -84.5v84zM592 158q133 0 211 80.5t78 216.5v176q0 137 -76.5 217t-210.5 80q-144 0 -225.5 -102.5t-81.5 -282.5t81 -282.5
t224 -102.5z" />
    <glyph glyph-name="aacute.ss02" horiz-adv-x="1228" 
d="M938 1491l-246 -272h-213l180 272h279zM881 1085h204v-1085h-204v84q-54 -53 -134.5 -84t-171.5 -31q-220 0 -356.5 159.5t-136.5 414.5t136.5 414t356.5 159q99 0 178.5 -30.5t127.5 -84.5v84zM592 158q133 0 211 80.5t78 216.5v176q0 137 -76.5 217t-210.5 80
q-144 0 -225.5 -102.5t-81.5 -282.5t81 -282.5t224 -102.5z" />
    <glyph glyph-name="abreve.ss02" horiz-adv-x="1228" 
d="M606 1198q-122 0 -200 72.5t-78 191.5h135q11 -47 48.5 -75.5t94.5 -28.5t95 28.5t49 75.5h135q0 -118 -78.5 -191t-200.5 -73zM881 1085h204v-1085h-204v84q-54 -53 -134.5 -84t-171.5 -31q-220 0 -356.5 159.5t-136.5 414.5t136.5 414t356.5 159q99 0 178.5 -30.5
t127.5 -84.5v84zM592 158q133 0 211 80.5t78 216.5v176q0 137 -76.5 217t-210.5 80q-144 0 -225.5 -102.5t-81.5 -282.5t81 -282.5t224 -102.5z" />
    <glyph glyph-name="uni01CE.ss02" horiz-adv-x="1228" 
d="M756 1219h-299l-144 180l150 112l143 -182l144 182l149 -112zM881 1085h204v-1085h-204v84q-54 -53 -134.5 -84t-171.5 -31q-220 0 -356.5 159.5t-136.5 414.5t136.5 414t356.5 159q99 0 178.5 -30.5t127.5 -84.5v84zM592 158q133 0 211 80.5t78 216.5v176
q0 137 -76.5 217t-210.5 80q-144 0 -225.5 -102.5t-81.5 -282.5t81 -282.5t224 -102.5z" />
    <glyph glyph-name="acircumflex.ss02" horiz-adv-x="1228" 
d="M606 1360l-143 -182l-150 112l144 180h299l143 -180l-149 -112zM881 1085h204v-1085h-204v84q-54 -53 -134.5 -84t-171.5 -31q-220 0 -356.5 159.5t-136.5 414.5t136.5 414t356.5 159q99 0 178.5 -30.5t127.5 -84.5v84zM592 158q133 0 211 80.5t78 216.5v176
q0 137 -76.5 217t-210.5 80q-144 0 -225.5 -102.5t-81.5 -282.5t81 -282.5t224 -102.5z" />
    <glyph glyph-name="uni1EAD.ss02" horiz-adv-x="1228" 
d="M606 1360l-143 -182l-150 112l144 180h299l143 -180l-149 -112zM881 1085h204v-1085h-204v84q-54 -53 -134.5 -84t-171.5 -31q-220 0 -356.5 159.5t-136.5 414.5t136.5 414t356.5 159q99 0 178.5 -30.5t127.5 -84.5v84zM592 158q133 0 211 80.5t78 216.5v176
q0 137 -76.5 217t-210.5 80q-144 0 -225.5 -102.5t-81.5 -282.5t81 -282.5t224 -102.5zM512 -346v244h244v-244h-244z" />
    <glyph glyph-name="adieresis.ss02" horiz-adv-x="1228" 
d="M502 1452v-233h-234v233h234zM944 1452v-233h-233v233h233zM881 1085h204v-1085h-204v84q-54 -53 -134.5 -84t-171.5 -31q-220 0 -356.5 159.5t-136.5 414.5t136.5 414t356.5 159q99 0 178.5 -30.5t127.5 -84.5v84zM592 158q133 0 211 80.5t78 216.5v176q0 137 -76.5 217
t-210.5 80q-144 0 -225.5 -102.5t-81.5 -282.5t81 -282.5t224 -102.5z" />
    <glyph glyph-name="uni01DF.ss02" horiz-adv-x="1228" 
d="M954 1675v-164h-696v164h696zM502 1219h-234v233h234v-233zM944 1219h-233v233h233v-233zM881 1085h204v-1085h-204v84q-54 -53 -134.5 -84t-171.5 -31q-220 0 -356.5 159.5t-136.5 414.5t136.5 414t356.5 159q99 0 178.5 -30.5t127.5 -84.5v84zM592 158q133 0 211 80.5
t78 216.5v176q0 137 -76.5 217t-210.5 80q-144 0 -225.5 -102.5t-81.5 -282.5t81 -282.5t224 -102.5z" />
    <glyph glyph-name="uni1EA1.ss02" horiz-adv-x="1228" 
d="M881 1085h204v-1085h-204v84q-54 -53 -134.5 -84t-171.5 -31q-220 0 -356.5 159.5t-136.5 414.5t136.5 414t356.5 159q99 0 178.5 -30.5t127.5 -84.5v84zM592 158q133 0 211 80.5t78 216.5v176q0 137 -76.5 217t-210.5 80q-144 0 -225.5 -102.5t-81.5 -282.5t81 -282.5
t224 -102.5zM483 -377v244h244v-244h-244z" />
    <glyph glyph-name="agrave.ss02" horiz-adv-x="1228" 
d="M713 1219h-213l-246 272h278zM881 1085h204v-1085h-204v84q-54 -53 -134.5 -84t-171.5 -31q-220 0 -356.5 159.5t-136.5 414.5t136.5 414t356.5 159q99 0 178.5 -30.5t127.5 -84.5v84zM592 158q133 0 211 80.5t78 216.5v176q0 137 -76.5 217t-210.5 80
q-144 0 -225.5 -102.5t-81.5 -282.5t81 -282.5t224 -102.5z" />
    <glyph glyph-name="amacron.ss02" horiz-adv-x="1228" 
d="M954 1382v-163h-696v163h696zM881 1085h204v-1085h-204v84q-54 -53 -134.5 -84t-171.5 -31q-220 0 -356.5 159.5t-136.5 414.5t136.5 414t356.5 159q99 0 178.5 -30.5t127.5 -84.5v84zM592 158q133 0 211 80.5t78 216.5v176q0 137 -76.5 217t-210.5 80
q-144 0 -225.5 -102.5t-81.5 -282.5t81 -282.5t224 -102.5z" />
    <glyph glyph-name="aogonek.ss02" horiz-adv-x="1228" 
d="M1135 -215l71 -152q-143 -69 -256 -69q-117 0 -186.5 52t-69.5 140q0 141 189 244h-2v84q-54 -53 -134.5 -84t-171.5 -31q-220 0 -356.5 159.5t-136.5 414.5t136.5 414t356.5 159q99 0 178.5 -30.5t127.5 -84.5v84h204v-1085h-4q-122 -71 -169.5 -117.5t-47.5 -95.5
q0 -61 86 -61q81 0 185 59zM592 158q133 0 211 80.5t78 216.5v176q0 137 -76.5 217t-210.5 80q-144 0 -225.5 -102.5t-81.5 -282.5t81 -282.5t224 -102.5z" />
    <glyph glyph-name="aring.ss02" horiz-adv-x="1228" 
d="M881 1085h204v-1085h-204v84q-54 -53 -134.5 -84t-171.5 -31q-220 0 -356.5 159.5t-136.5 414.5q0 186 75.5 324t207.5 202q-60 66 -60 156q0 102 72.5 166.5t187.5 64.5t187.5 -64.5t72.5 -166.5q0 -89 -53 -148q62 -26 109 -76v84zM565 1333q-49 0 -77.5 -30t-28.5 -78
t28.5 -78.5t77.5 -30.5t78 30.5t29 78.5t-29 78t-78 30zM592 158q133 0 211 80.5t78 216.5v176q0 137 -76.5 217t-210.5 80q-144 0 -225.5 -102.5t-81.5 -282.5t81 -282.5t224 -102.5z" />
    <glyph glyph-name="aringacute.ss02" horiz-adv-x="1228" 
d="M881 1085h204v-1085h-204v84q-54 -53 -134.5 -84t-171.5 -31q-220 0 -356.5 159.5t-136.5 414.5q0 186 75.5 324t207.5 202q-60 66 -60 156q0 76 43 134t117 83l164 246h278l-227 -252q68 -26 106.5 -82t38.5 -129q0 -89 -53 -148q62 -26 109 -76v84zM565 1333
q-49 0 -77.5 -30t-28.5 -78t28.5 -78.5t77.5 -30.5t78 30.5t29 78.5t-29 78t-78 30zM592 158q133 0 211 80.5t78 216.5v176q0 137 -76.5 217t-210.5 80q-144 0 -225.5 -102.5t-81.5 -282.5t81 -282.5t224 -102.5z" />
    <glyph glyph-name="atilde.ss02" horiz-adv-x="1228" 
d="M481 1290q-55 0 -69 -71h-142q5 113 57 175t144 62q54 0 144 -40t120 -40q55 0 70 70h141q-4 -114 -56.5 -176t-141.5 -62q-54 0 -145.5 41t-121.5 41zM881 1085h204v-1085h-204v84q-54 -53 -134.5 -84t-171.5 -31q-220 0 -356.5 159.5t-136.5 414.5t136.5 414t356.5 159
q99 0 178.5 -30.5t127.5 -84.5v84zM592 158q133 0 211 80.5t78 216.5v176q0 137 -76.5 217t-210.5 80q-144 0 -225.5 -102.5t-81.5 -282.5t81 -282.5t224 -102.5z" />
    <glyph glyph-name="f.ss04" horiz-adv-x="786" 
d="M262 0v897h-252v188h252v125q0 124 80 200.5t213 76.5q135 0 293 -94l-86 -162q-70 38 -113 52.5t-84 14.5q-47 0 -72.5 -25.5t-25.5 -72.5v-115h274v-188h-274v-897h-205z" />
    <glyph glyph-name="g.ss04" horiz-adv-x="1122" 
d="M702 119q67 -9 118.5 -22.5t98.5 -36.5t77.5 -54.5t48.5 -77.5t18 -104q0 -149 -134.5 -232.5t-371.5 -83.5q-229 0 -367.5 81.5t-138.5 224.5q0 67 39 131t117 106q-115 64 -115 182q0 126 131 199q-112 112 -112 275q0 175 130.5 292t333.5 117q114 0 209 -39
q35 94 110.5 157t176.5 83l51 -170q-169 -30 -217 -143q135 -119 135 -297q0 -175 -131 -292.5t-334 -117.5q-132 0 -237 51q-64 -31 -64 -88q0 -46 45 -70.5t156 -39.5zM575 938q-118 0 -192 -66t-74 -165t74 -165.5t192 -66.5q117 0 192 66.5t75 165.5t-75 165t-192 66z
M557 -313q150 0 228.5 38t78.5 111q0 56 -46 83t-148 40l-277 35q-6 0 -8 2q-63 -20 -99 -64t-36 -96q0 -72 81 -110.5t226 -38.5z" />
    <glyph glyph-name="gbreve.ss04" horiz-adv-x="1122" 
d="M535 1198q-122 0 -200.5 73t-78.5 191h135q11 -47 49 -75.5t95 -28.5t94.5 28.5t48.5 75.5h135q0 -119 -78 -191.5t-200 -72.5zM702 119q67 -9 118.5 -22.5t98.5 -36.5t77.5 -54.5t48.5 -77.5t18 -104q0 -149 -134.5 -232.5t-371.5 -83.5q-229 0 -367.5 81.5
t-138.5 224.5q0 67 39 131t117 106q-115 64 -115 182q0 126 131 199q-112 112 -112 275q0 175 130.5 292t333.5 117q114 0 209 -39q35 94 110.5 157t176.5 83l51 -170q-169 -30 -217 -143q135 -119 135 -297q0 -175 -131 -292.5t-334 -117.5q-132 0 -237 51q-64 -31 -64 -88
q0 -46 45 -70.5t156 -39.5zM575 938q-118 0 -192 -66t-74 -165t74 -165.5t192 -66.5q117 0 192 66.5t75 165.5t-75 165t-192 66zM557 -313q150 0 228.5 38t78.5 111q0 56 -46 83t-148 40l-277 35q-6 0 -8 2q-63 -20 -99 -64t-36 -96q0 -72 81 -110.5t226 -38.5z" />
    <glyph glyph-name="gcircumflex.ss04" horiz-adv-x="1122" 
d="M535 1360l-144 -182l-149 112l143 180h299l143 -180l-149 -112zM702 119q67 -9 118.5 -22.5t98.5 -36.5t77.5 -54.5t48.5 -77.5t18 -104q0 -149 -134.5 -232.5t-371.5 -83.5q-229 0 -367.5 81.5t-138.5 224.5q0 67 39 131t117 106q-115 64 -115 182q0 126 131 199
q-112 112 -112 275q0 175 130.5 292t333.5 117q114 0 209 -39q35 94 110.5 157t176.5 83l51 -170q-169 -30 -217 -143q135 -119 135 -297q0 -175 -131 -292.5t-334 -117.5q-132 0 -237 51q-64 -31 -64 -88q0 -46 45 -70.5t156 -39.5zM575 938q-118 0 -192 -66t-74 -165
t74 -165.5t192 -66.5q117 0 192 66.5t75 165.5t-75 165t-192 66zM557 -313q150 0 228.5 38t78.5 111q0 56 -46 83t-148 40l-277 35q-6 0 -8 2q-63 -20 -99 -64t-36 -96q0 -72 81 -110.5t226 -38.5z" />
    <glyph glyph-name="gcommaaccent.ss04" horiz-adv-x="1122" 
d="M657 1448v-229h-245v194q0 102 62 164t167 70v-109q-38 -7 -53 -27t-15 -63h84zM702 119q67 -9 118.5 -22.5t98.5 -36.5t77.5 -54.5t48.5 -77.5t18 -104q0 -149 -134.5 -232.5t-371.5 -83.5q-229 0 -367.5 81.5t-138.5 224.5q0 67 39 131t117 106q-115 64 -115 182
q0 126 131 199q-112 112 -112 275q0 175 130.5 292t333.5 117q114 0 209 -39q35 94 110.5 157t176.5 83l51 -170q-169 -30 -217 -143q135 -119 135 -297q0 -175 -131 -292.5t-334 -117.5q-132 0 -237 51q-64 -31 -64 -88q0 -46 45 -70.5t156 -39.5zM575 938q-118 0 -192 -66
t-74 -165t74 -165.5t192 -66.5q117 0 192 66.5t75 165.5t-75 165t-192 66zM557 -313q150 0 228.5 38t78.5 111q0 56 -46 83t-148 40l-277 35q-6 0 -8 2q-63 -20 -99 -64t-36 -96q0 -72 81 -110.5t226 -38.5z" />
    <glyph glyph-name="gdotaccent.ss04" horiz-adv-x="1122" 
d="M655 1462v-243h-243v243h243zM702 119q67 -9 118.5 -22.5t98.5 -36.5t77.5 -54.5t48.5 -77.5t18 -104q0 -149 -134.5 -232.5t-371.5 -83.5q-229 0 -367.5 81.5t-138.5 224.5q0 67 39 131t117 106q-115 64 -115 182q0 126 131 199q-112 112 -112 275q0 175 130.5 292
t333.5 117q114 0 209 -39q35 94 110.5 157t176.5 83l51 -170q-169 -30 -217 -143q135 -119 135 -297q0 -175 -131 -292.5t-334 -117.5q-132 0 -237 51q-64 -31 -64 -88q0 -46 45 -70.5t156 -39.5zM575 938q-118 0 -192 -66t-74 -165t74 -165.5t192 -66.5q117 0 192 66.5
t75 165.5t-75 165t-192 66zM557 -313q150 0 228.5 38t78.5 111q0 56 -46 83t-148 40l-277 35q-6 0 -8 2q-63 -20 -99 -64t-36 -96q0 -72 81 -110.5t226 -38.5z" />
    <glyph glyph-name="j.ss04" horiz-adv-x="794" 
d="M649 1473v-244h-243v244h243zM651 1085v-1073q0 -182 -107 -291.5t-284 -109.5q-87 0 -178 16l24 185q66 -13 130 -13q210 0 210 228v870h-374v188h579z" />
    <glyph glyph-name="uni0237.ss04" horiz-adv-x="794" 
d="M651 1085v-1073q0 -182 -107 -291.5t-284 -109.5q-87 0 -178 16l24 185q66 -13 130 -13q210 0 210 228v870h-374v188h579z" />
    <glyph glyph-name="jcircumflex.ss04" horiz-adv-x="794" 
d="M678 1440l143 -180l-149 -113l-144 182l-143 -182l-149 113l143 180h299zM72 1085h579v-1073q0 -182 -107 -291.5t-284 -109.5q-87 0 -178 16l24 185q66 -13 130 -13q210 0 210 228v870h-374v188z" />
    <glyph glyph-name="r.ss04" horiz-adv-x="776" 
d="M582 1116q64 0 133 -16l-43 -195q-74 23 -125 23q-92 0 -145.5 -68t-53.5 -186v-674h-205v1085h195v-98q28 57 95.5 93t148.5 36z" />
    <glyph glyph-name="racute.ss04" horiz-adv-x="776" 
d="M770 1491l-246 -272h-213l181 272h278zM338 987q28 57 95.5 93t148.5 36q64 0 133 -16l-43 -195q-74 23 -125 23q-92 0 -145.5 -68t-53.5 -186v-674h-205v1085h195v-98z" />
    <glyph glyph-name="rcaron.ss04" horiz-adv-x="776" 
d="M588 1219h-299l-144 180l150 112l143 -182l144 182l149 -112zM338 987q28 57 95.5 93t148.5 36q64 0 133 -16l-43 -195q-74 23 -125 23q-92 0 -145.5 -68t-53.5 -186v-674h-205v1085h195v-98z" />
    <glyph glyph-name="rcommaaccent.ss04" horiz-adv-x="776" 
d="M582 1116q64 0 133 -16l-43 -195q-74 23 -125 23q-92 0 -145.5 -68t-53.5 -186v-674h-205v1085h195v-98q28 57 95.5 93t148.5 36zM137 -332v230h246v-195q0 -102 -62 -163.5t-167 -69.5v108q38 7 52.5 27t14.5 63h-84z" />
    <glyph glyph-name="t.ss04" horiz-adv-x="794" 
d="M262 1372l205 62v-349h264v-188h-264v-608q0 -63 30.5 -97t86.5 -34q49 0 91.5 9t115.5 36l55 -185q-89 -29 -147 -39t-126 -10q-138 0 -224.5 82.5t-86.5 214.5v631h-252v188h252v287z" />
    <glyph glyph-name="tbar.ss04" horiz-adv-x="856" 
d="M791 203l55 -185q-89 -29 -147 -39t-126 -10q-138 0 -224.5 82.5t-86.5 214.5v223h-252v175h252v233h-252v188h252v287l205 62v-349h264v-188h-264v-233h258v-175h-258v-200q0 -63 30.5 -97t86.5 -34q49 0 91.5 9t115.5 36z" />
    <glyph glyph-name="tcaron.ss04" horiz-adv-x="794" 
d="M602 1206v109q38 7 53 27t15 63h-84v229h245v-194q0 -102 -62 -164t-167 -70zM262 1372l205 62v-349h264v-188h-264v-608q0 -63 30.5 -97t86.5 -34q49 0 91.5 9t115.5 36l55 -185q-89 -29 -147 -39t-126 -10q-138 0 -224.5 82.5t-86.5 214.5v631h-252v188h252v287z" />
    <glyph glyph-name="uni0163.ss04" horiz-adv-x="794" 
d="M594 -123q90 0 151.5 -50t61.5 -126q0 -98 -67.5 -158.5t-182.5 -60.5q-88 0 -157.5 37.5t-104.5 103.5l121 80q28 -45 59.5 -63.5t81.5 -18.5q49 0 75.5 22t24.5 58q-2 33 -27.5 51.5t-72.5 18.5t-100 -33l-111 59l111 191q-90 31 -142.5 104.5t-52.5 173.5v631h-252
v188h252v287l205 62v-349h264v-188h-264v-608q0 -63 30.5 -97t86.5 -34q49 0 91.5 9t115.5 36l55 -185q-144 -46 -258 -49l-58 -98q30 6 64 6z" />
    <glyph glyph-name="uni021B.ss04" horiz-adv-x="794" 
d="M262 1372l205 62v-349h264v-188h-264v-608q0 -63 30.5 -97t86.5 -34q49 0 91.5 9t115.5 36l55 -185q-89 -29 -147 -39t-126 -10q-138 0 -224.5 82.5t-86.5 214.5v631h-252v188h252v287zM436 -561v108q38 7 53 27.5t15 63.5h-84v229h246v-195q0 -102 -62.5 -163.5
t-167.5 -69.5z" />
    <glyph glyph-name="uni1E6D.ss04" horiz-adv-x="794" 
d="M262 1372l205 62v-349h264v-188h-264v-608q0 -63 30.5 -97t86.5 -34q49 0 91.5 9t115.5 36l55 -185q-89 -29 -147 -39t-126 -10q-138 0 -224.5 82.5t-86.5 214.5v631h-252v188h252v287zM420 -377v244h244v-244h-244z" />
    <glyph glyph-name="zero.case" horiz-adv-x="1228" 
d="M614 -31q-255 0 -393.5 195t-138.5 553t138.5 552.5t393.5 194.5t394 -194.5t139 -552.5t-139 -553t-394 -195zM614 168q155 0 236.5 141t81.5 408q0 265 -82 407t-236 142t-235.5 -141.5t-81.5 -407.5q0 -267 81 -408t236 -141z" />
    <glyph glyph-name="one.case" horiz-adv-x="901" 
d="M461 0v1108q-149 -141 -383 -197l-58 193q160 41 270 118t202 212h184v-1434h-215z" />
    <glyph glyph-name="two.case" horiz-adv-x="1230" 
d="M1139 1014q0 -98 -31.5 -179t-83.5 -135t-120 -101.5t-139 -80t-142 -68.5t-128.5 -68.5t-98.5 -80t-52 -102.5h762v-199h-983v129q0 91 27.5 166t74 127t106.5 95t126.5 76.5t132.5 65t126 65.5t106.5 73.5t74 94.5t27.5 122q0 114 -82 183t-211 69q-142 0 -228 -80.5
t-86 -220.5q0 -103 39 -193l-202 -65q-52 129 -52 258q0 225 147.5 362t381.5 137q219 0 363.5 -126.5t144.5 -323.5z" />
    <glyph glyph-name="three.case" horiz-adv-x="1159" 
d="M625 891q193 -5 312.5 -121t119.5 -326q0 -114 -42.5 -206t-113.5 -149.5t-161.5 -88.5t-190.5 -31q-222 0 -365.5 130t-163.5 360l211 28q15 -159 96.5 -239t221.5 -80q54 0 104 15t93.5 45.5t69.5 86.5t26 129q0 283 -318 283h-211v154l447 354h-654v199h924v-213z" />
    <glyph glyph-name="four.case" horiz-adv-x="1249" 
d="M786 0v291h-704v205q243 238 360 447.5t170 490.5h217q-47 -283 -160 -507.5t-317 -437.5h434v392h215v-392h187v-198h-187v-291h-215z" />
    <glyph glyph-name="five.case" horiz-adv-x="1241" 
d="M662 942q224 0 360.5 -137t136.5 -348q0 -213 -146.5 -350.5t-383.5 -137.5q-196 0 -341.5 114.5t-185.5 297.5l207 53q26 -123 111.5 -194.5t208.5 -71.5q148 0 231.5 80t83.5 209q0 128 -80.5 210.5t-216.5 82.5q-189 0 -313 -164l-191 51l142 797h755v-199h-575
l-72 -371q115 78 269 78z" />
    <glyph glyph-name="six.case" horiz-adv-x="1208" 
d="M1147 449q1 -205 -140.5 -342.5t-351.5 -137.5q-123 0 -223 38t-174 113.5t-115 196t-41 277.5q0 376 209.5 602t575.5 268l28 -196q-235 -29 -389 -151t-198 -337q122 138 342 138q204 0 340 -133.5t137 -335.5zM639 166q124 0 207.5 77t83.5 201q0 129 -77 204t-216 75
q-127 0 -211 -77.5t-84 -201.5q0 -117 85.5 -197.5t211.5 -80.5z" />
    <glyph glyph-name="seven.case" horiz-adv-x="1107" 
d="M41 1434h1026v-240q-266 -292 -395 -580t-144 -614h-221q15 339 158 675t379 560h-588v-223h-215v422z" />
    <glyph glyph-name="eight.case" horiz-adv-x="1181" 
d="M881 764q93 -46 151 -144t58 -210q0 -192 -140 -316.5t-358 -124.5q-219 0 -359.5 124.5t-140.5 316.5q0 112 58 210t151 144q-166 115 -166 303q0 175 128 286t329 111q200 0 327.5 -111t127.5 -286q0 -188 -166 -303zM592 1270q-107 0 -176.5 -59.5t-69.5 -151.5
q0 -98 67 -156.5t179 -58.5q111 0 177.5 58.5t66.5 156.5q0 92 -69 151.5t-175 59.5zM592 168q127 0 204.5 68.5t77.5 181.5q0 117 -76.5 186.5t-205.5 69.5q-130 0 -207.5 -69.5t-77.5 -186.5q0 -113 78 -181.5t207 -68.5z" />
    <glyph glyph-name="nine.case" horiz-adv-x="1208" 
d="M567 1464q243 0 391 -161t148 -422q0 -183 -41 -330.5t-128 -266t-231 -198.5t-341 -117l-37 197q230 42 368 163.5t170 305.5q-123 -117 -329 -117q-213 0 -344.5 131t-131.5 332q0 211 142.5 347t363.5 136zM567 709q138 0 220.5 76t82.5 202q0 117 -88 198t-215 81
q-126 0 -208.5 -77.5t-82.5 -201.5q0 -130 74.5 -204t216.5 -74z" />
    <glyph glyph-name="one.ss01" horiz-adv-x="911" 
d="M481 0v1171l-420 -262v209l439 273h186v-1391h-205z" />
    <glyph glyph-name="two.ss01" horiz-adv-x="1196" 
d="M326 205v-19h743v-186h-944v193q0 83 26.5 150.5t71.5 114.5t103.5 86t123 69.5t129 59t123 60.5t103.5 68.5t71.5 88.5t26.5 116q0 95 -75 161t-189 66q-149 0 -240.5 -92.5t-97.5 -251.5l-199 8q3 231 154 377.5t383 146.5q198 0 331.5 -120.5t133.5 -294.5
q0 -87 -26.5 -159.5t-71.5 -123t-103.5 -92.5t-123 -73.5t-129 -60t-123 -57.5t-103.5 -61.5t-71.5 -76.5t-26.5 -97z" />
    <glyph glyph-name="three.ss01" horiz-adv-x="1136" 
d="M834 727q92 -43 146 -130t54 -194q0 -194 -130.5 -314t-338.5 -120q-216 0 -348.5 124t-155.5 349l199 31q15 -159 90.5 -237t214.5 -78q121 0 195 67.5t74 180.5q0 109 -63.5 168t-182.5 59h-139v180h143q102 0 158.5 55t56.5 154q0 92 -68.5 151.5t-175.5 59.5
q-112 0 -185.5 -70.5t-88.5 -199.5l-201 22q23 202 153.5 319t321.5 117t319 -113t128 -282q0 -99 -45 -175.5t-131 -123.5z" />
    <glyph glyph-name="four.ss01" horiz-adv-x="1257" 
d="M977 471h219v-188h-219v-283h-205v283h-690v196l678 912h217v-920zM303 471h469v627z" />
    <glyph glyph-name="six.ss01" horiz-adv-x="1193" 
d="M1133 434q1 -130 -62 -236.5t-175 -167.5t-249 -61q-265 0 -405 177t-140 503q0 231 67 406.5t191.5 270.5t288.5 95q181 0 304 -105.5t155 -289.5l-197 -37q-22 116 -88.5 180t-173.5 64q-143 0 -240 -136t-106 -354q61 71 154 112.5t198 41.5q132 0 241.5 -60.5
t172.5 -167t64 -235.5zM643 158q126 0 206.5 79t80.5 199q0 119 -84 198t-211 79t-212 -79t-85 -198t87.5 -198.5t217.5 -79.5z" />
    <glyph glyph-name="seven.ss01" horiz-adv-x="1095" 
d="M252 0l569 1202h-555v-217h-205v406h973v-207l-555 -1184h-227z" />
    <glyph glyph-name="nine.ss01" horiz-adv-x="1165" 
d="M537 1421q244 0 385 -177.5t141 -485.5q0 -388 -132 -588.5t-378 -200.5q-171 0 -290.5 103.5t-153.5 281.5l196 45q47 -241 248 -241q139 0 217.5 124t87.5 369q-111 -157 -338 -157q-188 0 -323.5 129t-135.5 329q0 203 134.5 336t341.5 133zM543 680q121 0 199.5 77.5
t78.5 198.5q0 118 -82.5 197.5t-203.5 79.5q-119 0 -195 -77t-76 -200q0 -129 77.5 -202.5t201.5 -73.5z" />
    <glyph glyph-name="one.ss01.case" horiz-adv-x="933" 
d="M494 0v1206l-433 -268v217l453 279h195v-1434h-215z" />
    <glyph glyph-name="two.ss01.case" horiz-adv-x="1230" 
d="M340 215v-16h762v-199h-977v201q0 85 27.5 155t73.5 118.5t106 89t126 72t132.5 61t126.5 62t106 69.5t73.5 89.5t27.5 116.5q0 98 -75.5 165t-191.5 67q-151 0 -244.5 -95t-99.5 -256l-211 11q3 236 158.5 387t396.5 151q206 0 344 -124.5t138 -305.5q0 -89 -27.5 -163
t-73.5 -126t-106 -95t-126 -75t-132.5 -61.5t-126.5 -59t-106 -62.5t-73.5 -78t-27.5 -99z" />
    <glyph glyph-name="three.ss01.case" horiz-adv-x="1171" 
d="M868 748q92 -45 146.5 -132t54.5 -198q0 -202 -135 -325.5t-352 -123.5q-225 0 -361.5 129t-159.5 359l211 32q15 -161 91 -241t219 -80q124 0 198 67.5t74 182.5q0 231 -250 231h-143v193h147q105 0 162 54.5t57 154.5q0 95 -69.5 155t-179.5 60q-113 0 -186.5 -73
t-88.5 -204l-213 25q23 208 157 329t331 121q200 0 332 -117.5t132 -295.5q0 -201 -174 -303z" />
    <glyph glyph-name="four.ss01.case" horiz-adv-x="1294" 
d="M1010 489h223v-198h-223v-291h-217v291h-711v205l698 938h230v-945zM315 489h478v633z" />
    <glyph glyph-name="six.ss01.case" horiz-adv-x="1228" 
d="M1167 449q1 -135 -62.5 -245t-178.5 -172.5t-258 -62.5q-278 0 -422 180.5t-144 520.5q0 363 153.5 578.5t410.5 215.5q190 0 316.5 -108t160.5 -299l-211 -39q-23 123 -90.5 185.5t-175.5 62.5q-142 0 -240.5 -135t-110.5 -353q64 69 158 108.5t201 39.5
q136 0 249 -62.5t178 -172t66 -242.5zM664 168q127 0 207.5 79.5t80.5 201.5q0 121 -85 200.5t-216 79.5t-216 -79.5t-85 -200.5t90 -201t224 -80z" />
    <glyph glyph-name="seven.ss01.case" horiz-adv-x="1128" 
d="M258 0l584 1235h-566v-223h-215v422h1006v-217l-569 -1217h-240z" />
    <glyph glyph-name="nine.ss01.case" horiz-adv-x="1200" 
d="M551 1464q254 0 400.5 -180t146.5 -489q0 -408 -136 -617t-393 -209q-179 0 -301.5 107t-156.5 291l208 49q49 -248 250 -248q140 0 220 126.5t92 371.5q-113 -156 -349 -156q-127 0 -234 58t-172 166.5t-65 246.5q0 211 137.5 347t352.5 136zM559 709q125 0 204 77.5
t79 200.5q0 119 -84.5 199t-208.5 80q-121 0 -197 -78t-76 -201q0 -134 77.5 -206t205.5 -72z" />
    <glyph glyph-name="zero.tf" 
d="M635 -31q-255 0 -394 195t-139 553t139 552.5t394 194.5t393.5 -194.5t138.5 -552.5t-138.5 -553t-393.5 -195zM635 168q155 0 236 141t81 408q0 266 -81.5 407.5t-235.5 141.5t-236 -142t-82 -407q0 -267 81.5 -408t236.5 -141z" />
    <glyph glyph-name="one.tf" 
d="M748 199h460v-199h-1147v199h471v909q-78 -74 -169.5 -121t-212.5 -76l-58 193q160 41 269.5 118t201.5 212h185v-1235z" />
    <glyph glyph-name="two.tf" 
d="M1153 1014q0 -98 -31.5 -179t-83.5 -135t-120 -101.5t-139 -80t-142 -68.5t-128.5 -68.5t-98.5 -80t-52 -102.5h762v-199h-983v129q0 91 27.5 166t74 127t106.5 95t126.5 76.5t132.5 65t126 65.5t106.5 73.5t74 94.5t27.5 122q0 114 -82 183t-211 69q-142 0 -227.5 -80.5
t-85.5 -220.5q0 -103 39 -193l-203 -65q-51 127 -51 258q0 225 147 362t381 137q219 0 363.5 -126.5t144.5 -323.5z" />
    <glyph glyph-name="three.tf" 
d="M721 891q193 -5 312.5 -121t119.5 -326q0 -114 -42.5 -206t-113.5 -149.5t-161.5 -88.5t-190.5 -31q-221 0 -364.5 130t-163.5 360l211 28q15 -159 96 -239t221 -80q54 0 104 15t93.5 45.5t69.5 86.5t26 129q0 283 -317 283h-211v154l446 354h-653v199h923v-213z" />
    <glyph glyph-name="four.tf" 
d="M786 0v291h-704v205q243 238 360 447.5t170 490.5h217q-47 -283 -160 -507.5t-317 -437.5h434v392h215v-392h187v-198h-187v-291h-215z" />
    <glyph glyph-name="five.tf" 
d="M666 942q224 0 360.5 -137t136.5 -348q0 -213 -146.5 -350.5t-383.5 -137.5q-196 0 -341.5 114.5t-185.5 297.5l207 53q26 -123 111.5 -194.5t208.5 -71.5q148 0 231.5 80t83.5 209q0 128 -80.5 210.5t-216.5 82.5q-189 0 -313 -164l-191 51l142 797h755v-199h-575
l-72 -371q115 78 269 78z" />
    <glyph glyph-name="six.tf" 
d="M1157 449q1 -205 -140 -342.5t-351 -137.5q-123 0 -223 38t-174 113.5t-115 196t-41 277.5q0 376 209 602t575 268l29 -196q-235 -29 -389.5 -151t-198.5 -337q122 138 342 138q204 0 340 -133.5t137 -335.5zM649 166q124 0 207.5 77t83.5 201q0 129 -77 204t-216 75
q-127 0 -211 -77.5t-84 -201.5q0 -117 85.5 -197.5t211.5 -80.5z" />
    <glyph glyph-name="seven.tf" 
d="M121 1434h1026v-240q-266 -292 -395 -580t-144 -614h-221q15 339 158 675t379 560h-588v-223h-215v422z" />
    <glyph glyph-name="eight.tf" 
d="M924 764q93 -46 151 -144t58 -210q0 -192 -140 -316.5t-358 -124.5q-219 0 -359.5 124.5t-140.5 316.5q0 112 58 210t151 144q-166 115 -166 303q0 175 128 286t329 111q200 0 327.5 -111t127.5 -286q0 -188 -166 -303zM635 1270q-107 0 -176.5 -59.5t-69.5 -151.5
q0 -98 67 -156.5t179 -58.5q111 0 177.5 58.5t66.5 156.5q0 92 -69 151.5t-175 59.5zM635 168q127 0 205 68.5t78 181.5q0 117 -77 186.5t-206 69.5q-130 0 -207.5 -69.5t-77.5 -186.5q0 -113 78 -181.5t207 -68.5z" />
    <glyph glyph-name="nine.tf" 
d="M618 1464q243 0 391 -161t148 -422q0 -183 -41 -330.5t-128 -266t-231 -198.5t-341 -117l-37 197q230 42 368.5 163.5t170.5 305.5q-123 -117 -330 -117q-212 0 -343.5 131t-131.5 332q0 211 142 347t363 136zM618 709q138 0 221 76t83 202q0 117 -88.5 198t-215.5 81
q-126 0 -208 -77t-82 -202q0 -130 74 -204t216 -74z" />
    <glyph glyph-name="zero.subs" horiz-adv-x="739" 
d="M371 -326q-159 0 -244.5 116.5t-85.5 332.5t85.5 332t244.5 116q158 0 242.5 -116t84.5 -332t-84.5 -332.5t-242.5 -116.5zM371 -172q82 0 121.5 72t39.5 223q0 295 -161 295q-164 0 -164 -295q0 -150 40.5 -222.5t123.5 -72.5z" />
    <glyph glyph-name="one.subs" horiz-adv-x="552" 
d="M274 -307v641q-42 -41 -91 -66.5t-130 -50.5l-43 150q103 32 165 72.5t122 113.5h143v-860h-166z" />
    <glyph glyph-name="two.subs" horiz-adv-x="739" 
d="M692 287q0 -85 -41.5 -147.5t-104 -99t-126.5 -64.5t-120 -60.5t-73 -69.5h441v-153h-600v88q0 72 25.5 127.5t65.5 89.5t89 60.5t98 48t89 45t65.5 59t25.5 82.5q0 54 -41.5 89.5t-107.5 35.5q-72 0 -116 -42.5t-44 -111.5q0 -52 23 -106l-158 -47q-31 82 -31 153
q0 135 91.5 221t234.5 86q137 0 226 -80t89 -204z" />
    <glyph glyph-name="three.subs" horiz-adv-x="702" 
d="M403 217q114 -5 181 -71t67 -175q0 -130 -87 -213.5t-224 -83.5q-140 0 -229 80.5t-101 218.5l164 23q15 -168 166 -168q66 0 105.5 38.5t39.5 104.5q0 138 -153 138h-142v104l252 186h-376v154h567l2 -166z" />
    <glyph glyph-name="four.subs" horiz-adv-x="757" 
d="M623 8h104v-155h-104v-160h-166v160h-416v157q130 132 200 257.5t97 285.5h172q-24 -165 -100 -306.5t-183 -238.5h230v205h166v-205z" />
    <glyph glyph-name="five.subs" horiz-adv-x="745" 
d="M410 262q126 0 210.5 -80.5t84.5 -201.5q0 -132 -92.5 -219t-233.5 -87q-123 0 -211 66t-117 180l158 47q38 -139 170 -139q71 0 115.5 42.5t44.5 109.5q0 64 -43.5 103.5t-112.5 39.5q-87 0 -164 -80l-147 35l84 475h475v-154h-336l-31 -176q61 39 146 39z" />
    <glyph glyph-name="six.subs" horiz-adv-x="727" 
d="M410 246q124 0 205 -79.5t81 -201.5q0 -123 -87 -207t-212 -84q-164 0 -255 100t-91 289q0 214 129.5 349.5t354.5 158.5l24 -153q-136 -14 -223.5 -74.5t-114.5 -163.5q72 66 189 66zM383 -172q65 0 106 37.5t41 97.5q0 63 -39.5 100t-107.5 37q-63 0 -105 -38.5
t-42 -98.5q0 -58 42 -96.5t105 -38.5z" />
    <glyph glyph-name="seven.subs" horiz-adv-x="675" 
d="M20 553h635v-191q-159 -179 -226.5 -328.5t-74.5 -340.5h-182q8 190 91 387t222 319h-299v-129h-166v283z" />
    <glyph glyph-name="eight.subs" horiz-adv-x="710" 
d="M532 154q60 -31 96 -89.5t36 -125.5q0 -114 -88.5 -189.5t-221.5 -75.5q-132 0 -219.5 75.5t-87.5 189.5q0 68 35.5 126t95.5 89q-106 57 -106 178q0 101 81 170t201 69q122 0 204.5 -69t82.5 -170q0 -119 -109 -178zM354 428q-54 0 -86 -28.5t-32 -75.5q0 -51 31 -79
t87 -28q57 0 89 28t32 79q0 47 -33 75.5t-88 28.5zM354 -172q66 0 105 34t39 91t-38.5 91t-105.5 34q-64 0 -102.5 -34t-38.5 -91t38.5 -91t102.5 -34z" />
    <glyph glyph-name="nine.subs" horiz-adv-x="727" 
d="M344 571q149 0 240.5 -99.5t91.5 -262.5q0 -466 -463 -535l-23 154q129 22 209.5 83.5t106.5 158.5q-68 -68 -195 -68q-125 0 -202.5 77.5t-77.5 201.5q0 125 89 207.5t224 82.5zM344 145q66 0 107 38t41 98t-41.5 98.5t-106.5 38.5t-106 -38t-41 -99q0 -64 38 -100
t109 -36z" />
    <glyph glyph-name="zero.dnom" horiz-adv-x="739" 
d="M371 -18q-159 0 -244.5 116t-85.5 332t85.5 332.5t244.5 116.5q158 0 242.5 -116.5t84.5 -332.5t-84.5 -332t-242.5 -116zM371 135q82 0 121.5 72t39.5 223q0 295 -161 295q-164 0 -164 -295q0 -150 40.5 -222.5t123.5 -72.5z" />
    <glyph glyph-name="one.dnom" horiz-adv-x="552" 
d="M274 0v641q-42 -41 -91 -66.5t-130 -50.5l-43 150q103 32 165 72.5t122 113.5h143v-860h-166z" />
    <glyph glyph-name="two.dnom" horiz-adv-x="739" 
d="M692 594q0 -62 -22 -112t-58.5 -83.5t-81.5 -60t-92.5 -47.5t-89 -40.5t-75 -44t-46.5 -52.5h441v-154h-600v88q0 72 25.5 127.5t65.5 89.5t89 60.5t98 48t89 45t65.5 59t25.5 82.5q0 54 -41.5 89.5t-107.5 35.5q-72 0 -116 -42.5t-44 -111.5q0 -52 23 -106l-158 -47
q-31 82 -31 153q0 135 91.5 221.5t234.5 86.5q137 0 226 -80.5t89 -204.5z" />
    <glyph glyph-name="three.dnom" horiz-adv-x="702" 
d="M403 524q114 -5 181 -70.5t67 -174.5q0 -130 -87 -213.5t-224 -83.5q-140 0 -229 80.5t-101 218.5l164 22q15 -168 166 -168q66 0 105.5 39t39.5 105q0 137 -153 137h-142v104l252 187h-376v153h567l2 -166z" />
    <glyph glyph-name="four.dnom" horiz-adv-x="757" 
d="M623 315h104v-155h-104v-160h-166v160h-416v157q130 132 200 257.5t97 285.5h172q-24 -165 -100 -306.5t-183 -238.5h230v205h166v-205z" />
    <glyph glyph-name="five.dnom" horiz-adv-x="745" 
d="M410 569q126 0 210.5 -80.5t84.5 -201.5q0 -132 -92.5 -218.5t-233.5 -86.5q-123 0 -211 65.5t-117 179.5l158 47q38 -139 170 -139q71 0 115.5 42.5t44.5 109.5q0 64 -43.5 103.5t-112.5 39.5q-87 0 -164 -80l-147 35l84 475h475v-153h-336l-31 -177q61 39 146 39z" />
    <glyph glyph-name="six.dnom" horiz-adv-x="727" 
d="M410 553q124 0 205 -79.5t81 -201.5t-87 -206t-212 -84q-164 0 -255 100t-91 289q0 214 129.5 349.5t354.5 158.5l24 -154q-136 -14 -223.5 -74.5t-114.5 -163.5q72 66 189 66zM383 135q65 0 106 37.5t41 97.5q0 63 -40 100.5t-107 37.5q-63 0 -105 -39t-42 -99
q0 -58 42 -96.5t105 -38.5z" />
    <glyph glyph-name="seven.dnom" horiz-adv-x="675" 
d="M20 860h635v-190q-159 -179 -226.5 -328.5t-74.5 -341.5h-182q8 190 91 387.5t222 319.5h-299v-129h-166v282z" />
    <glyph glyph-name="eight.dnom" horiz-adv-x="710" 
d="M532 461q60 -31 96 -89.5t36 -125.5q0 -114 -88 -189t-222 -75q-132 0 -219.5 75t-87.5 189q0 68 35.5 126t95.5 89q-106 57 -106 178q0 101 81 170.5t201 69.5q121 0 204 -69.5t83 -170.5q0 -119 -109 -178zM354 735q-54 0 -86 -28.5t-32 -75.5q0 -51 31 -79t87 -28
q57 0 89 28t32 79q0 47 -33 75.5t-88 28.5zM354 135q66 0 105 34t39 91t-38.5 91t-105.5 34q-64 0 -102.5 -34t-38.5 -91t38.5 -91t102.5 -34z" />
    <glyph glyph-name="nine.dnom" horiz-adv-x="727" 
d="M344 879q149 0 240.5 -100t91.5 -263q0 -465 -463 -534l-23 153q129 22 209.5 83.5t106.5 158.5q-68 -68 -195 -68q-125 0 -202.5 77.5t-77.5 201.5q0 125 89 208t224 83zM344 453q66 0 107 37.5t41 97.5t-41.5 98.5t-106.5 38.5t-106 -38t-41 -99q0 -64 38 -99.5
t109 -35.5z" />
    <glyph glyph-name="zero.numr" horiz-adv-x="739" 
d="M371 555q-159 0 -244.5 116.5t-85.5 332.5t85.5 332t244.5 116q158 0 242.5 -116t84.5 -332t-84.5 -332.5t-242.5 -116.5zM371 709q82 0 121.5 72t39.5 223q0 294 -161 294q-164 0 -164 -294q0 -150 40.5 -222.5t123.5 -72.5z" />
    <glyph glyph-name="one.numr" horiz-adv-x="552" 
d="M274 573v641q-42 -40 -90.5 -65.5t-130.5 -50.5l-43 149q103 32 165 72.5t122 114.5h143v-861h-166z" />
    <glyph glyph-name="two.numr" horiz-adv-x="739" 
d="M692 1167q0 -62 -22 -112t-58.5 -83.5t-81.5 -60t-92.5 -47.5t-89 -40.5t-75 -44t-46.5 -52.5h441v-154h-600v89q0 72 25.5 127.5t65.5 89.5t89 60.5t98 48t89 45t65.5 59t25.5 82.5q0 54 -41.5 89t-107.5 35q-72 0 -116 -42t-44 -111q0 -53 23 -107l-158 -47
q-31 82 -31 154q0 135 91.5 221t234.5 86q137 0 226 -80.5t89 -204.5z" />
    <glyph glyph-name="three.numr" horiz-adv-x="702" 
d="M403 1098q114 -5 181 -71t67 -175q0 -130 -87 -213.5t-224 -83.5q-140 0 -229 80.5t-101 218.5l164 23q15 -168 166 -168q66 0 105.5 38.5t39.5 104.5q0 137 -153 137h-142v105l252 186h-376v154h567l2 -166z" />
    <glyph glyph-name="four.numr" horiz-adv-x="757" 
d="M623 889h104v-156h-104v-160h-166v160h-416v158q130 132 200 257.5t97 285.5h172q-24 -165 -100 -306.5t-183 -238.5h230v205h166v-205z" />
    <glyph glyph-name="five.numr" horiz-adv-x="745" 
d="M410 1143q126 0 210.5 -81t84.5 -202q0 -132 -92.5 -218.5t-233.5 -86.5q-123 0 -211 66t-117 180l158 47q38 -139 170 -139q71 0 115.5 42t44.5 109q0 64 -43.5 104t-112.5 40q-87 0 -164 -80l-147 34l84 476h475v-154h-336l-31 -176q61 39 146 39z" />
    <glyph glyph-name="six.numr" horiz-adv-x="727" 
d="M410 1126q124 0 205 -79t81 -201q0 -123 -87 -207t-212 -84q-164 0 -255 100t-91 289q0 214 129.5 349.5t354.5 158.5l24 -154q-137 -14 -224 -74t-114 -163q71 65 189 65zM383 709q65 0 106 37.5t41 97.5q0 63 -39.5 100t-107.5 37q-63 0 -105 -38.5t-42 -98.5
q0 -58 42 -96.5t105 -38.5z" />
    <glyph glyph-name="seven.numr" horiz-adv-x="675" 
d="M20 1434h635v-191q-159 -179 -226.5 -328.5t-74.5 -341.5h-182q8 190 91 387.5t222 319.5h-299v-129h-166v283z" />
    <glyph glyph-name="eight.numr" horiz-adv-x="710" 
d="M532 1034q60 -31 96 -89.5t36 -125.5q0 -114 -88 -189t-222 -75q-132 0 -219.5 75t-87.5 189q0 68 35.5 126t95.5 89q-106 57 -106 178q0 101 81 170.5t201 69.5q121 0 204 -69.5t83 -170.5q0 -119 -109 -178zM354 1309q-54 0 -86 -29t-32 -76q0 -51 31 -78.5t87 -27.5
q57 0 89 27.5t32 78.5q0 47 -33 76t-88 29zM354 709q66 0 105 34t39 91t-38.5 90.5t-105.5 33.5q-65 0 -103 -33.5t-38 -90.5t38.5 -91t102.5 -34z" />
    <glyph glyph-name="nine.numr" horiz-adv-x="727" 
d="M344 1452q149 0 240.5 -99.5t91.5 -262.5q0 -466 -463 -535l-23 154q129 22 209.5 83t106.5 158q-67 -67 -195 -67q-125 0 -202.5 77.5t-77.5 200.5q0 125 89 208t224 83zM344 1026q66 0 107 37.5t41 97.5t-41.5 98.5t-106.5 38.5t-106 -38t-41 -99q0 -64 38 -99.5
t109 -35.5z" />
    <glyph glyph-name="zero.sups" horiz-adv-x="739" 
d="M371 760q-159 0 -244.5 116t-85.5 332t85.5 332.5t244.5 116.5q158 0 242.5 -116.5t84.5 -332.5t-84.5 -332t-242.5 -116zM371 913q82 0 121.5 72t39.5 223q0 295 -161 295q-164 0 -164 -295q0 -150 40.5 -222.5t123.5 -72.5z" />
    <glyph glyph-name="one.sups" horiz-adv-x="552" 
d="M274 778v641q-42 -40 -90.5 -65.5t-130.5 -50.5l-43 149q103 32 165 72.5t122 113.5h143v-860h-166z" />
    <glyph glyph-name="two.sups" horiz-adv-x="739" 
d="M692 1372q0 -62 -22 -112t-58.5 -83.5t-81.5 -60t-92.5 -47.5t-89 -40.5t-75 -44t-46.5 -52.5h441v-154h-600v88q0 72 25.5 127.5t65.5 89.5t89 60.5t98 48t89 45t65.5 59t25.5 82.5q0 54 -41.5 89.5t-107.5 35.5q-72 0 -116 -42t-44 -111q0 -53 23 -107l-158 -47
q-31 82 -31 154q0 135 91.5 221t234.5 86q137 0 226 -80.5t89 -204.5z" />
    <glyph glyph-name="three.sups" horiz-adv-x="702" 
d="M403 1303q114 -5 181 -71t67 -175q0 -130 -87 -213.5t-224 -83.5q-140 0 -229 80.5t-101 218.5l164 22q15 -168 166 -168q66 0 105.5 39t39.5 105q0 137 -153 137h-142v104l252 187h-376v153h567l2 -165z" />
    <glyph glyph-name="four.sups" horiz-adv-x="757" 
d="M623 1094h104v-156h-104v-160h-166v160h-416v158q130 132 200 257t97 285h172q-24 -165 -100 -306t-183 -238h230v204h166v-204z" />
    <glyph glyph-name="five.sups" horiz-adv-x="745" 
d="M410 1348q126 0 210.5 -81t84.5 -202q0 -132 -92.5 -218.5t-233.5 -86.5q-123 0 -211 66t-117 180l158 47q38 -140 170 -140q71 0 115.5 42.5t44.5 109.5q0 64 -43.5 103.5t-112.5 39.5q-87 0 -164 -80l-147 35l84 475h475v-153h-336l-31 -176q61 39 146 39z" />
    <glyph glyph-name="six.sups" horiz-adv-x="727" 
d="M410 1331q124 0 205 -79t81 -201q0 -123 -87 -207t-212 -84q-164 0 -255 100t-91 289q0 214 129.5 349.5t354.5 158.5l24 -154q-137 -14 -224 -74t-114 -163q71 65 189 65zM383 913q65 0 106 38t41 98q0 63 -39.5 100t-107.5 37q-63 0 -105 -38.5t-42 -98.5q0 -58 42 -97
t105 -39z" />
    <glyph glyph-name="seven.sups" horiz-adv-x="675" 
d="M20 1638h635v-190q-159 -179 -226.5 -328.5t-74.5 -341.5h-182q8 190 91 387.5t222 319.5h-299v-129h-166v282z" />
    <glyph glyph-name="eight.sups" horiz-adv-x="710" 
d="M532 1239q60 -31 96 -89.5t36 -125.5q0 -114 -88 -189t-222 -75q-132 0 -219.5 75t-87.5 189q0 68 35.5 126t95.5 89q-106 57 -106 178q0 101 81 170.5t201 69.5q121 0 204 -69.5t83 -170.5q0 -119 -109 -178zM354 1513q-54 0 -86 -28.5t-32 -75.5q0 -51 31 -78.5
t87 -27.5q57 0 89 27.5t32 78.5q0 47 -33 75.5t-88 28.5zM354 913q66 0 105 34t39 91t-38.5 91t-105.5 34q-64 0 -102.5 -34t-38.5 -91t38.5 -91t102.5 -34z" />
    <glyph glyph-name="nine.sups" horiz-adv-x="727" 
d="M344 1657q149 0 240.5 -100t91.5 -263q0 -465 -463 -534l-23 153q129 22 209.5 83.5t106.5 158.5q-68 -68 -195 -68q-125 0 -202.5 77.5t-77.5 201.5q0 125 89 208t224 83zM344 1231q66 0 107 37.5t41 97.5t-41.5 98.5t-106.5 38.5t-106 -38t-41 -99q0 -64 38 -99.5
t109 -35.5z" />
    <glyph glyph-name="question.ss01" horiz-adv-x="1249" 
d="M512 420v96q0 71 23 128.5t60 95.5t82 69.5t90 58.5t82 55t60 66t23 84q0 80 -79 136.5t-196 56.5q-146 0 -242 -84t-120 -252l-213 31q32 238 187.5 370.5t387.5 132.5q212 0 351 -113.5t139 -277.5q0 -77 -23.5 -138.5t-61 -101.5t-83 -72.5t-91 -58.5t-83 -51.5
t-61 -59.5t-23.5 -75v-96h-209zM475 0v256h262v-256h-262z" />
    <glyph glyph-name="questiondown.ss01" 
d="M795 1085v-256h-263v256h263zM758 666v-97q0 -71 -23 -128.5t-60 -95.5t-82 -69.5t-90 -58.5t-82 -55t-60 -66t-23 -84q0 -80 78.5 -136t195.5 -56q146 0 242.5 84t120.5 252l213 -31q-32 -238 -188 -371t-388 -133q-212 0 -350.5 113.5t-138.5 277.5q0 77 23.5 138.5
t61 101.5t83 72.5t91 58.5t83 51.5t61 59.5t23.5 75v97h209z" />
    <glyph glyph-name="braceleft.case" horiz-adv-x="757" 
d="M563 -328q-152 0 -236.5 84t-84.5 236v493q0 43 -24 65.5t-68 22.5h-89v197h89q44 0 68 22.5t24 65.5v451q0 152 84.5 235.5t236.5 83.5h154v-198h-125q-72 0 -103.5 -32t-31.5 -104v-409q0 -183 -150 -213q150 -30 150 -213v-453q0 -72 31.5 -103.5t103.5 -31.5h125
v-199h-154z" />
    <glyph glyph-name="braceright.case" horiz-adv-x="757" 
d="M195 -328h-154v199h125q72 0 103.5 31.5t31.5 103.5v453q0 183 150 213q-150 30 -150 213v409q0 72 -31.5 104t-103.5 32h-125v198h154q152 0 236.5 -83.5t84.5 -235.5v-451q0 -43 24 -65.5t68 -22.5h88v-197h-88q-44 0 -68 -22.5t-24 -65.5v-493q0 -152 -84.5 -236
t-236.5 -84z" />
    <glyph glyph-name="bracketleft.case" horiz-adv-x="724" 
d="M164 -328v1956h520v-198h-305v-1559h305v-199h-520z" />
    <glyph glyph-name="bracketright.case" horiz-adv-x="724" 
d="M561 -328h-520v199h305v1559h-305v198h520v-1956z" />
    </font>
</defs>
</svg>
