<?xml version="1.0" standalone="no"?>
<!DOCTYPE svg PUBLIC "-//W3C//DTD SVG 1.1//EN" "http://www.w3.org/Graphics/SVG/1.1/DTD/svg11.dtd" >
<svg xmlns="http://www.w3.org/2000/svg" xmlns:xlink="http://www.w3.org/1999/xlink" version="1.1">
<metadata>
Created by FontForge 20170731 at Wed Nov 17 17:50:39 2021
 By Aleksey,,,
Copyright (c) 2018 by Timo Gaessner. All rights reserved.
</metadata>
<defs>
<font id="Maison-Regular" horiz-adv-x="1269" >
  <font-face 
    font-family="Maison"
    font-weight="400"
    font-stretch="normal"
    units-per-em="2048"
    panose-1="2 11 5 4 3 0 0 0 0 4"
    ascent="1546"
    descent="-502"
    x-height="1085"
    cap-height="1434"
    bbox="-1137 -627 4579 2099"
    underline-thickness="163"
    underline-position="-408"
    unicode-range="U+000D-FEFF"
  />
<missing-glyph horiz-adv-x="1404" 
d="M102 -10v866q0 127 45.5 238t125 190t190.5 124.5t237 45.5q128 0 240 -45.5t191.5 -124.5t125.5 -190t46 -238v-866h-58l-133 133l-139 -133l-129 133l-146 -133l-141 133l-129 -133l-137 133l-135 -133h-54zM307 614l129 129l131 -129l29 29l-131 129l131 131l-29 29
l-131 -131l-129 131l-28 -29l129 -131l-129 -129zM840 614l129 129l131 -129l28 29l-131 129l131 131l-28 29l-131 -131l-129 131l-29 -29l129 -131l-129 -129z" />
    <glyph glyph-name="fi" unicode="fi" horiz-adv-x="1239" 
d="M1085 1085v-1085h-163v936h-480v-936h-163v936h-263v149h263v121q0 122 74 196.5t198 74.5q106 0 229 -66l-59 -135q-93 49 -166 49q-55 0 -84 -32.5t-29 -94.5v-113h643zM895 1458h217v-219h-217v219z" />
    <glyph glyph-name="fl" unicode="fl" horiz-adv-x="1239" 
d="M922 1434h163v-1434h-163v936h-480v-936h-163v936h-263v149h263v121q0 122 74 196.5t198 74.5q106 0 229 -66l-59 -135q-93 49 -166 49q-55 0 -84 -32.5t-29 -94.5v-113h480v349z" />
    <glyph glyph-name="W_W_W" unicode="WWW" horiz-adv-x="4671" 
d="M4413 1434h166l-288 -1434h-195l-371 1153l-372 -1153h-183l-370 1153l-373 -1153h-182l-371 1153l-373 -1153h-182l-371 1153l-373 -1153h-194l-289 1434h166l240 -1176l376 1176h146l391 -1215l389 1215h146l391 -1215l389 1215h145l391 -1215l390 1215h145l377 -1172z
" />
    <glyph glyph-name="f_f_i" unicode="ffi" horiz-adv-x="1918" 
d="M1765 1085v-1085h-163v936h-480v-936h-164v936h-516v-936h-163v936h-263v149h263v121q0 122 74 196.5t198 74.5q134 0 285 -99l-74 -129q-68 42 -114 59t-93 17q-55 0 -84 -32.5t-29 -94.5v-113h516v121q0 122 74.5 196.5t198.5 74.5q106 0 229 -66l-59 -135
q-93 49 -166 49q-55 0 -84 -32.5t-29 -94.5v-113h643zM1575 1458h217v-219h-217v219z" />
    <glyph glyph-name="f_f_l" unicode="ffl" horiz-adv-x="1918" 
d="M1602 1434h163v-1434h-163v936h-480v-936h-164v936h-516v-936h-163v936h-263v149h263v121q0 122 74 196.5t198 74.5q134 0 285 -99l-74 -129q-68 42 -114 59t-93 17q-55 0 -84 -32.5t-29 -94.5v-113h516v121q0 122 74.5 196.5t198.5 74.5q106 0 229 -66l-59 -135
q-93 49 -166 49q-55 0 -84 -32.5t-29 -94.5v-113h480v349z" />
    <glyph glyph-name="w_w_w" unicode="www" horiz-adv-x="3663" 
d="M3478 1085h155l-278 -1085h-189l-270 840l-270 -840h-170l-269 840l-270 -840h-170l-270 840l-271 -840h-170l-268 840l-270 -840h-189l-278 1085h153l228 -890l286 890h138l286 -890l287 890h135l287 -890l287 890h137l287 -890l286 890h135l287 -890z" />
    <glyph glyph-name=".notdef" horiz-adv-x="1404" 
d="M102 -10v866q0 127 45.5 238t125 190t190.5 124.5t237 45.5q128 0 240 -45.5t191.5 -124.5t125.5 -190t46 -238v-866h-58l-133 133l-139 -133l-129 133l-146 -133l-141 133l-129 -133l-137 133l-135 -133h-54zM307 614l129 129l131 -129l29 29l-131 129l131 131l-29 29
l-131 -131l-129 131l-28 -29l129 -131l-129 -129zM840 614l129 129l131 -129l28 29l-131 129l131 131l-28 29l-131 -131l-129 131l-29 -29l129 -131l-129 -129z" />
    <glyph glyph-name=".null" horiz-adv-x="0" 
 />
    <glyph glyph-name="nonmarkingreturn" horiz-adv-x="682" 
 />
    <glyph glyph-name="CR" unicode="&#xd;" horiz-adv-x="747" 
 />
    <glyph glyph-name="space" unicode=" " horiz-adv-x="563" 
 />
    <glyph glyph-name="exclam" unicode="!" horiz-adv-x="659" 
d="M254 393v1041h174v-1041h-174zM215 0v227h231v-227h-231z" />
    <glyph glyph-name="quotedbl" unicode="&#x22;" horiz-adv-x="757" 
d="M150 961l-17 473h174l-14 -473h-143zM467 961l-16 473h174l-15 -473h-143z" />
    <glyph glyph-name="numbersign" unicode="#" horiz-adv-x="1339" 
d="M1206 895h-223l-25 -356h216v-136h-224l-28 -403h-150l29 403h-303l-29 -403h-150l29 403h-215v136h223l25 356h-215v137h225l27 402h149l-26 -402h303l26 402h150l-27 -402h213v-137zM809 539l25 356h-304l-24 -356h303z" />
    <glyph glyph-name="dollar" unicode="$" horiz-adv-x="1290" 
d="M1163 399q1 -180 -108 -292t-301 -134v-225h-174v227q-198 23 -319 151.5t-152 346.5l170 25q25 -180 123.5 -273.5t267.5 -93.5q152 0 236.5 69.5t84.5 198.5q0 60 -27.5 105.5t-74.5 74t-107.5 50.5t-127.5 40.5t-133.5 38.5t-127 49.5t-107.5 68.5t-74.5 101
t-27.5 142q0 158 103.5 265t271.5 126v215h174v-223q151 -31 258.5 -142.5t136.5 -273.5l-170 -30q-24 136 -117 217.5t-218 81.5q-119 0 -192 -66t-73 -170q0 -53 27.5 -92.5t74 -64.5t106.5 -45t126.5 -39t133 -40t127 -53.5t107 -75t74.5 -109t29 -151.5z" />
    <glyph glyph-name="percent" unicode="%" horiz-adv-x="1925" 
d="M1280 1505l137 -61l-778 -1546l-137 59zM461 555q-158 0 -243 116.5t-85 332.5q0 215 85 331.5t243 116.5q157 0 241 -116.5t84 -331.5q0 -214 -84.5 -331.5t-240.5 -117.5zM461 700q170 0 170 304q0 305 -170 305t-170 -305q0 -304 170 -304zM1464 -18
q-157 0 -241 116.5t-84 331.5q0 217 84 333t241 116t242.5 -116.5t85.5 -332.5q0 -215 -85.5 -331.5t-242.5 -116.5zM1464 127q172 0 172 303q0 305 -172 305q-170 0 -170 -305q0 -303 170 -303z" />
    <glyph glyph-name="ampersand" unicode="&#x26;" horiz-adv-x="1331" 
d="M1276 301l-59 -137q-101 38 -185 78q-78 -140 -191 -206.5t-272 -66.5q-201 0 -328.5 104.5t-127.5 276.5q0 239 229 393q-115 171 -115 355q0 165 101.5 265.5t267.5 100.5q158 0 260 -91.5t102 -233.5q2 -117 -82 -210.5t-309 -219.5q135 -132 379 -260q51 141 80 342
l156 -27q-40 -241 -95 -383q55 -25 189 -80zM596 1327q-101 0 -161 -62t-58 -165q3 -148 94 -279q198 110 268 175.5t70 144.5q0 83 -59.5 134.5t-153.5 51.5zM569 115q215 0 324 194q-287 147 -457 320q-166 -119 -166 -279q0 -111 81.5 -173t217.5 -62z" />
    <glyph glyph-name="quotesingle" unicode="'" horiz-adv-x="440" 
d="M150 961l-17 473h174l-14 -473h-143z" />
    <glyph glyph-name="parenleft" unicode="(" horiz-adv-x="679" 
d="M520 -461q-188 221 -287.5 485t-99.5 539q0 276 100.5 540t290.5 488l125 -96q-163 -191 -252.5 -435t-89.5 -497q0 -250 89.5 -493.5t250.5 -434.5z" />
    <glyph glyph-name="parenright" unicode=")" horiz-adv-x="679" 
d="M160 -461l-127 96q161 191 250.5 434.5t89.5 493.5q0 253 -89.5 497t-252.5 435l125 96q190 -224 290.5 -488t100.5 -540q0 -275 -99.5 -539t-287.5 -485z" />
    <glyph glyph-name="asterisk" unicode="*" horiz-adv-x="1089" 
d="M360 651l-112 82l188 256l-303 96l43 132l301 -101v318h137l-2 -318l303 101l41 -132l-303 -96l189 -256l-111 -82l-186 258z" />
    <glyph glyph-name="plus" unicode="+" 
d="M1157 784v-159h-434v-453h-174v453h-436v159h436v430h174v-430h434z" />
    <glyph glyph-name="comma" unicode="," horiz-adv-x="538" 
d="M143 -227v123q50 9 68 31.5t18 72.5h-96v252h273v-213q0 -118 -68.5 -186.5t-194.5 -79.5z" />
    <glyph glyph-name="hyphen" unicode="-" horiz-adv-x="880" 
d="M133 551v162h615v-162h-615z" />
    <glyph glyph-name="period" unicode="." horiz-adv-x="522" 
d="M133 0v252h256v-252h-256z" />
    <glyph glyph-name="slash" unicode="/" horiz-adv-x="1187" 
d="M905 1507l150 -65l-772 -1546l-150 63z" />
    <glyph glyph-name="zero" unicode="0" horiz-adv-x="1196" 
d="M598 -31q-242 0 -374 190t-132 537t132 536t374 189t374 -189t132 -536q0 -348 -132 -537.5t-374 -189.5zM598 121q167 0 254.5 147.5t87.5 427.5q0 279 -87.5 427.5t-254.5 148.5t-254.5 -148.5t-87.5 -427.5q0 -280 87.5 -427.5t254.5 -147.5z" />
    <glyph glyph-name="one" unicode="1" horiz-adv-x="856" 
d="M457 0v1120q-136 -151 -381 -219l-45 148q164 50 263.5 125.5t184.5 216.5h142v-1391h-164z" />
    <glyph glyph-name="two" unicode="2" horiz-adv-x="1193" 
d="M1096 993q0 -87 -26 -159t-69.5 -123t-101 -93.5t-121.5 -75.5t-128.5 -63.5t-124.5 -63t-108 -68.5t-80.5 -85.5t-39.5 -109.5h772v-152h-938v96q0 90 27.5 164.5t74 126t106.5 94.5t126.5 76.5t132.5 65t126 67t106.5 76.5t74 98.5t27.5 128.5q0 118 -88.5 198.5
t-222.5 80.5q-155 0 -250 -89t-95 -241q0 -99 41 -192l-151 -56q-53 124 -53 248q0 217 141.5 348t366.5 131q204 0 339.5 -122.5t135.5 -305.5z" />
    <glyph glyph-name="three" unicode="3" horiz-adv-x="1126" 
d="M553 864q212 0 336.5 -114.5t124.5 -317.5q0 -109 -39 -198.5t-105.5 -146.5t-151.5 -87.5t-179 -30.5q-217 0 -353 123t-155 346l162 21q13 -169 102.5 -253.5t241.5 -84.5q60 0 115 18.5t100 55t71.5 98t26.5 139.5q0 146 -86.5 223.5t-255.5 77.5h-197v119l463 389
h-663v150h876v-164l-436 -363h2z" />
    <glyph glyph-name="four" unicode="4" horiz-adv-x="1214" 
d="M788 0v297h-696v166q226 202 354 421t181 507h164q-51 -293 -172.5 -522.5t-323.5 -419.5h493v415h164v-415h191v-152h-191v-297h-164z" />
    <glyph glyph-name="five" unicode="5" horiz-adv-x="1208" 
d="M645 907q205 0 338 -131t133 -334q0 -207 -139.5 -340t-360.5 -133q-190 0 -326.5 107.5t-176.5 290.5l157 41q30 -139 121 -213t225 -74q151 0 243.5 89.5t92.5 231.5q0 139 -89 229.5t-226 90.5q-215 0 -342 -193l-143 43l139 779h713v-150h-576l-82 -436
q124 102 299 102z" />
    <glyph glyph-name="six" unicode="6" horiz-adv-x="1175" 
d="M1104 434q1 -198 -134 -331.5t-335 -133.5q-243 0 -382.5 155.5t-139.5 418.5q0 384 198 611t547 267l25 -147q-242 -33 -401 -175t-199 -378q56 79 150.5 124.5t209.5 45.5q201 0 331 -129.5t130 -327.5zM621 121q136 0 227.5 88t91.5 223q0 141 -85.5 226t-229.5 85
q-141 0 -232.5 -87.5t-91.5 -223.5q0 -134 91 -222.5t229 -88.5z" />
    <glyph glyph-name="seven" unicode="7" horiz-adv-x="1075" 
d="M51 1391h973v-181q-258 -292 -387 -579.5t-154 -630.5h-166q27 357 163.5 676.5t373.5 564.5h-639v-227h-164v377z" />
    <glyph glyph-name="eight" unicode="8" horiz-adv-x="1150" 
d="M834 745q95 -46 155 -143t60 -207q0 -189 -134 -307.5t-340 -118.5t-339.5 118.5t-133.5 307.5q0 110 59.5 206t155.5 144q-170 104 -170 299q0 165 120.5 271t307.5 106t308 -106.5t121 -270.5q0 -192 -170 -299zM575 1272q-118 0 -192 -65t-74 -167q0 -104 73.5 -167.5
t192.5 -63.5q120 0 193.5 63.5t73.5 167.5q0 102 -75 167t-192 65zM575 121q138 0 224 75.5t86 200.5q0 127 -85 204t-225 77t-224.5 -77t-84.5 -204q0 -125 86.5 -200.5t222.5 -75.5z" />
    <glyph glyph-name="nine" unicode="9" horiz-adv-x="1175" 
d="M555 1421q228 0 368 -154t140 -403q0 -370 -179 -602t-528 -293l-24 150q232 40 376.5 181t178.5 357q-60 -75 -153.5 -115t-209.5 -40q-201 0 -326.5 126.5t-125.5 327.5q0 200 137 332.5t346 132.5zM551 649q146 0 237 86t91 223q0 134 -93 224t-231 90
q-137 0 -228 -90t-91 -224q0 -146 83.5 -227.5t231.5 -81.5z" />
    <glyph glyph-name="colon" unicode=":" horiz-adv-x="522" 
d="M133 815v252h256v-252h-256zM133 0v252h256v-252h-256z" />
    <glyph glyph-name="semicolon" unicode=";" horiz-adv-x="540" 
d="M133 815v252h256v-252h-256zM145 -227v123q50 9 68 31.5t18 72.5h-96v252h273v-213q0 -118 -68.5 -186.5t-194.5 -79.5z" />
    <glyph glyph-name="less" unicode="&#x3c;" 
d="M985 129l-792 479v168l792 477l88 -137l-706 -424l706 -424z" />
    <glyph glyph-name="equal" unicode="=" 
d="M215 829v177h840v-177h-840zM215 389v176h840v-176h-840z" />
    <glyph glyph-name="greater" unicode="&#x3e;" 
d="M283 129l-88 139l706 424l-706 424l88 137l792 -477v-168z" />
    <glyph glyph-name="question" unicode="?" 
d="M520 393v322q258 76 360.5 151t102.5 195q0 104 -91.5 174t-232.5 70q-170 0 -275 -102t-120 -281l-172 18q20 242 173 383t394 141q216 0 357 -115.5t141 -287.5q0 -161 -108 -261.5t-359 -183.5v-223h-170zM483 0v227h232v-227h-232z" />
    <glyph glyph-name="at" unicode="@" horiz-adv-x="1464" 
d="M692 684q115 26 153 47.5t38 59.5q0 41 -36.5 66.5t-96.5 25.5q-71 0 -116.5 -38t-55.5 -108l-129 23q15 111 97.5 179.5t203.5 68.5q122 0 194 -64t72 -172v-344q0 -34 12 -45.5t47 -11.5q25 0 46 15.5t39.5 51t29 101.5t10.5 157q0 252 -123 397.5t-327 145.5
q-218 0 -351 -170.5t-133 -454.5q0 -294 135 -459t365 -165q179 0 360 106l62 -108q-197 -121 -422 -121q-290 0 -461.5 200t-171.5 547q0 220 75.5 389.5t216 264t325.5 94.5q265 0 423 -182t158 -484q0 -448 -260 -448q-115 0 -149 94q-34 -43 -91.5 -68.5t-125.5 -25.5
q-116 0 -186 58t-70 153q0 91 56.5 144t186.5 81zM883 647q-10 -17 -42.5 -30.5t-113.5 -38.5q-83 -25 -113 -49t-30 -64q0 -44 32.5 -68t92.5 -24q75 0 124.5 40t49.5 101v133z" />
    <glyph glyph-name="A" unicode="A" horiz-adv-x="1423" 
d="M1214 0l-159 395h-684l-160 -395h-180l590 1434h184l588 -1434h-179zM432 547h561l-280 690z" />
    <glyph glyph-name="B" unicode="B" horiz-adv-x="1300" 
d="M981 766q120 -43 189 -136t69 -218q0 -182 -133 -297t-344 -115h-588v1434h580q180 0 298.5 -105t118.5 -266q0 -101 -50 -178t-140 -119zM348 1274v-440h393q118 0 187 61.5t69 167.5q0 96 -69.5 153.5t-186.5 57.5h-393zM754 162q145 0 228 68t83 188q0 118 -84 188
t-227 70h-406v-514h406z" />
    <glyph glyph-name="C" unicode="C" horiz-adv-x="1318" 
d="M690 -31q-184 0 -320.5 94.5t-207 263t-70.5 390.5q0 223 70.5 391t206.5 262t321 94q212 0 360 -125t195 -342l-166 -36q-41 168 -141.5 256t-247.5 88q-199 0 -310.5 -158.5t-111.5 -429.5t111.5 -428.5t310.5 -157.5q150 0 252 92.5t141 274.5l164 -39
q-45 -230 -194 -360t-363 -130z" />
    <glyph glyph-name="D" unicode="D" horiz-adv-x="1376" 
d="M174 1434h422q319 0 503.5 -184t184.5 -533q0 -350 -184 -533.5t-504 -183.5h-422v1434zM582 162q252 0 390 137t138 418q0 282 -138 419.5t-390 137.5h-234v-1112h234z" />
    <glyph glyph-name="E" unicode="E" horiz-adv-x="1161" 
d="M174 0v1434h895v-160h-719v-459h549v-153h-549v-500h719v-162h-895z" />
    <glyph glyph-name="F" unicode="F" horiz-adv-x="1146" 
d="M174 0v1434h901v-160h-725v-498h553v-160h-553v-616h-176z" />
    <glyph glyph-name="G" unicode="G" horiz-adv-x="1396" 
d="M598 721h655v-721h-106l-43 152q-152 -183 -414 -183q-184 0 -320.5 94.5t-207 263t-70.5 390.5q0 223 70.5 391t206.5 262t321 94q211 0 358 -124.5t197 -342.5l-166 -36q-41 168 -141.5 256t-247.5 88q-199 0 -310.5 -158.5t-111.5 -429.5t111.5 -428.5t310.5 -157.5
q175 0 281 108.5t106 266.5v53h-479v162z" />
    <glyph glyph-name="H" unicode="H" horiz-adv-x="1396" 
d="M174 1434h176v-615h697v615h176v-1434h-176v659h-697v-659h-176v1434z" />
    <glyph glyph-name="I" unicode="I" horiz-adv-x="526" 
d="M174 0v1434h178v-1434h-178z" />
    <glyph glyph-name="J" unicode="J" horiz-adv-x="946" 
d="M57 1434h725v-850q0 -286 -158 -435t-470 -149h-97v162h97q241 0 347.5 103t106.5 329v678h-551v162z" />
    <glyph glyph-name="K" unicode="K" horiz-adv-x="1359" 
d="M1124 0l-534 680l-240 -277v-403h-176v1434h176v-789l678 789h227l-550 -633l638 -801h-219z" />
    <glyph glyph-name="L" unicode="L" horiz-adv-x="1169" 
d="M174 1434h176v-1272h762v-162h-938v1434z" />
    <glyph glyph-name="M" unicode="M" horiz-adv-x="1630" 
d="M1260 1434h196v-1434h-174v1151l-438 -780h-60l-438 780v-1151h-172v1434h195l446 -807z" />
    <glyph glyph-name="N" unicode="N" horiz-adv-x="1378" 
d="M1030 1434h174v-1434h-178l-678 1141v-1141h-174v1434h178l678 -1141v1141z" />
    <glyph glyph-name="O" unicode="O" horiz-adv-x="1380" 
d="M690 -31q-186 0 -322.5 95.5t-206 263.5t-69.5 389q0 165 40.5 302.5t116 236t188.5 153.5t253 55t253 -55t188.5 -153.5t116 -236t40.5 -302.5q0 -221 -69.5 -389t-206 -263.5t-322.5 -95.5zM690 131q202 0 312 158.5t110 427.5q0 271 -110 429.5t-312 158.5
q-201 0 -311.5 -159t-110.5 -429q0 -269 110.5 -427.5t311.5 -158.5z" />
    <glyph glyph-name="P" unicode="P" horiz-adv-x="1300" 
d="M174 0v1434h592q204 0 333.5 -121.5t129.5 -306.5t-130 -308t-333 -123h-416v-575h-176zM350 737h402q137 0 220 74t83 195q0 120 -83.5 194t-219.5 74h-402v-537z" />
    <glyph glyph-name="Q" unicode="Q" horiz-adv-x="1419" 
d="M1317 111l-23 -142q-150 15 -260 111q-142 -111 -344 -111q-186 0 -322.5 95.5t-206 263.5t-69.5 389q0 165 40.5 302.5t116 236t188.5 153.5t253 55t253 -55t188.5 -153.5t116 -236t40.5 -302.5q0 -328 -151 -533q76 -62 180 -73zM268 717q0 -269 110.5 -427.5
t311.5 -158.5q135 0 228 72q-18 22 -48.5 60t-46.5 57.5t-44 46.5t-51.5 41.5t-57 26.5t-72.5 16l25 137q54 -7 100.5 -24t76.5 -33.5t64.5 -49.5t51 -52t50 -62.5t48.5 -61.5q98 151 98 412q0 271 -110 429.5t-312 158.5q-201 0 -311.5 -159t-110.5 -429z" />
    <glyph glyph-name="R" unicode="R" horiz-adv-x="1329" 
d="M1108 399l129 -399h-203l-104 356q-74 256 -357 256h-223v-612h-176v1434h598q199 0 322 -115.5t123 -294.5q0 -144 -82 -250t-222 -143q135 -52 195 -232zM350 774h408q129 0 206.5 65.5t77.5 184.5t-77.5 184.5t-206.5 65.5h-408v-500z" />
    <glyph glyph-name="S" unicode="S" horiz-adv-x="1275" 
d="M666 -31q-261 0 -421.5 130.5t-197.5 373.5l172 25q59 -367 447 -367q178 0 274 69.5t96 198.5q0 102 -84 160t-313 115q-285 70 -396.5 157t-111.5 238q0 174 133.5 284.5t345.5 110.5t368 -119t193 -309l-174 -30q-26 134 -133 216.5t-254 82.5q-136 0 -220.5 -65.5
t-84.5 -170.5q0 -60 34 -98.5t119 -72.5t257 -77q267 -68 379.5 -163.5t115.5 -258.5q2 -198 -145 -314t-399 -116z" />
    <glyph glyph-name="T" unicode="T" horiz-adv-x="1263" 
d="M545 0v1274h-508v160h1192v-160h-508v-1274h-176z" />
    <glyph glyph-name="U" unicode="U" horiz-adv-x="1445" 
d="M725 -31q-251 0 -406 142.5t-155 388.5v934h176v-924q0 -184 102.5 -281.5t282.5 -97.5q178 0 280.5 97t102.5 282v924h174v-934q0 -246 -154 -388.5t-403 -142.5z" />
    <glyph glyph-name="V" unicode="V" horiz-adv-x="1378" 
d="M1155 1434h193l-566 -1434h-186l-565 1434h194l465 -1205z" />
    <glyph glyph-name="W" unicode="W" horiz-adv-x="1638" 
d="M1374 1434h172l-217 -1434h-199l-309 872l-311 -872h-199l-219 1434h172l178 -1180l320 911h117l319 -911z" />
    <glyph glyph-name="X" unicode="X" horiz-adv-x="1298" 
d="M1284 0h-201l-434 633l-436 -633h-197l514 739l-475 695h195l399 -584l398 584h198l-477 -693z" />
    <glyph glyph-name="Y" unicode="Y" horiz-adv-x="1261" 
d="M1038 1434h209l-528 -820v-614h-176v614l-527 820h207l408 -652z" />
    <glyph glyph-name="Z" unicode="Z" horiz-adv-x="1247" 
d="M78 0v147l887 1133h-856v154h1060v-146l-886 -1134h876v-154h-1081z" />
    <glyph glyph-name="bracketleft" unicode="[" horiz-adv-x="708" 
d="M174 -430v1956h483v-160h-309v-1636h309v-160h-483z" />
    <glyph glyph-name="backslash" unicode="\" horiz-adv-x="1187" 
d="M283 1507l772 -1548l-150 -63l-772 1546z" />
    <glyph glyph-name="bracketright" unicode="]" horiz-adv-x="708" 
d="M535 -430h-484v160h309v1636h-309v160h484v-1956z" />
    <glyph glyph-name="asciicircum" unicode="^" horiz-adv-x="1228" 
d="M1096 666h-187l-293 594l-294 -594h-189l391 768h181z" />
    <glyph glyph-name="underscore" unicode="_" horiz-adv-x="1228" 
d="M133 -264v162h963v-162h-963z" />
    <glyph glyph-name="grave" unicode="`" horiz-adv-x="673" 
d="M242 1188h-181l-227 256h242z" />
    <glyph glyph-name="a" unicode="a" horiz-adv-x="1148" 
d="M1110 150l25 -140q-73 -16 -136 -16q-144 0 -182 135q-50 -70 -141 -109.5t-209 -39.5q-170 0 -272.5 84t-102.5 223q0 133 87 213t278 123q193 42 261 80t68 106q0 74 -66 119t-175 45q-123 0 -202.5 -67.5t-96.5 -182.5l-154 25q25 166 149 267t304 101q183 0 291 -90
t108 -244v-540q0 -48 20.5 -76.5t61.5 -28.5q24 0 84 13zM786 375v237q-15 -29 -78 -55.5t-219 -67.5q-131 -35 -185 -80t-54 -118q0 -80 57 -124t162 -44q139 0 228 71t89 181z" />
    <glyph glyph-name="b" unicode="b" horiz-adv-x="1228" 
d="M645 1116q220 0 356 -157.5t136 -415.5q0 -256 -135.5 -415t-356.5 -159q-99 0 -186 36.5t-142 98.5v-104h-163v1434h163v-455q52 63 138.5 100t189.5 37zM637 121q155 0 245.5 114.5t90.5 307.5q0 195 -91.5 309.5t-246.5 114.5q-141 0 -229.5 -88t-88.5 -226v-211
q0 -145 87.5 -233t232.5 -88z" />
    <glyph glyph-name="c" unicode="c" horiz-adv-x="1138" 
d="M598 -31q-223 0 -364.5 160.5t-141.5 413.5t141.5 413t364.5 160q176 0 304.5 -98.5t164.5 -267.5l-160 -37q-29 120 -111.5 187t-197.5 67q-152 0 -247 -118t-95 -306t95 -305t247 -117q122 0 203 69t108 205l158 -39q-36 -183 -162 -285t-307 -102z" />
    <glyph glyph-name="d" unicode="d" horiz-adv-x="1228" 
d="M911 1434h164v-1434h-164v104q-55 -62 -141.5 -98.5t-185.5 -36.5q-221 0 -356.5 159t-135.5 415q0 258 136 415.5t356 157.5q103 0 189 -37t138 -100v455zM592 121q145 0 232 88t87 233v211q0 138 -88 226t-229 88q-155 0 -246.5 -114.5t-91.5 -309.5
q0 -193 90.5 -307.5t245.5 -114.5z" />
    <glyph glyph-name="e" unicode="e" horiz-adv-x="1165" 
d="M252 475q17 -167 105 -263.5t225 -96.5q225 0 321 237l135 -69q-59 -146 -176.5 -230t-279.5 -84q-222 0 -356 157.5t-134 416.5t134.5 416t355.5 157t356 -156.5t135 -416.5v-68h-821zM582 973q-138 0 -230.5 -99t-99.5 -264h657q-14 166 -102 264.5t-225 98.5z" />
    <glyph glyph-name="f" unicode="f" horiz-adv-x="835" 
d="M279 0v936h-263v149h263v121q0 122 74 196.5t198 74.5q134 0 285 -99l-74 -129q-68 42 -114 59t-93 17q-55 0 -84 -32.5t-29 -94.5v-113h346v-149h-346v-936h-163z" />
    <glyph glyph-name="g" unicode="g" horiz-adv-x="1163" 
d="M743 102q179 -21 270 -88.5t91 -197.5q0 -146 -135 -227t-381 -81q-240 0 -378 80.5t-138 221.5q0 74 44.5 139.5t127.5 105.5q-129 63 -129 185t127 192q-109 115 -109 275q0 177 127.5 293t325.5 116q125 0 225 -49q32 91 103.5 148.5t170.5 76.5l37 -145
q-79 -11 -133 -49t-76 -99q127 -114 127 -292q0 -176 -128 -293t-326 -117q-139 0 -248 61q-76 -35 -76 -98q0 -53 51 -83t158 -42zM586 973q-129 0 -211 -75t-82 -191q0 -115 82 -191t211 -76q130 0 212.5 75.5t82.5 191.5t-82.5 191t-212.5 75zM588 -348q356 0 356 168
q0 68 -53 103.5t-168 47.5l-303 37q-3 0 -7.5 1t-6.5 1q-79 -19 -127 -71.5t-48 -118.5q0 -81 93 -124.5t264 -43.5z" />
    <glyph glyph-name="h" unicode="h" horiz-adv-x="1249" 
d="M670 1116q195 0 315.5 -120t120.5 -320v-676h-164v649q0 155 -75.5 236.5t-217.5 81.5q-150 0 -240 -87t-90 -233l-2 -647h-163v1434h163v-467q55 69 148.5 109t204.5 40z" />
    <glyph glyph-name="i" unicode="i" horiz-adv-x="471" 
d="M127 1239v219h217v-219h-217zM154 0v1085h163v-1085h-163z" />
    <glyph glyph-name="j" unicode="j" horiz-adv-x="751" 
d="M387 1458h217v-219h-217v219zM53 1085h545v-1077q0 -183 -100.5 -290t-268.5 -107q-127 0 -260 51l51 141q107 -43 197 -43q105 0 161 64.5t56 189.5v922h-381v149z" />
    <glyph glyph-name="k" unicode="k" horiz-adv-x="1101" 
d="M893 0l-399 541l-177 -187v-354h-163v1434h163v-875l488 526h219l-426 -444l487 -641h-192z" />
    <glyph glyph-name="l" unicode="l" horiz-adv-x="471" 
d="M154 0v1434h163v-1434h-163z" />
    <glyph glyph-name="m" unicode="m" horiz-adv-x="1820" 
d="M1272 1116q186 0 295.5 -109t109.5 -302v-705h-164v696q0 271 -249 271q-122 0 -194.5 -73t-72.5 -194v-700h-163v696q0 271 -250 271q-121 0 -194 -73.5t-73 -193.5v-700h-163v1085h161v-94q47 58 123.5 91.5t169.5 33.5q106 0 192 -44t136 -124q55 78 143 123t193 45z
" />
    <glyph glyph-name="n" unicode="n" horiz-adv-x="1249" 
d="M670 1116q195 0 315.5 -120t120.5 -320v-676h-164v649q0 155 -75.5 236.5t-217.5 81.5q-150 0 -240 -87t-90 -233l-2 -647h-163v1085h163v-118q55 69 148.5 109t204.5 40z" />
    <glyph glyph-name="o" unicode="o" horiz-adv-x="1187" 
d="M594 -31q-226 0 -364 157t-138 417t138 416.5t364 156.5t364 -156.5t138 -416.5t-138 -417t-364 -157zM594 121q157 0 247.5 116t90.5 306q0 192 -90 308t-248 116q-156 0 -247 -116.5t-91 -307.5q0 -190 91 -306t247 -116z" />
    <glyph glyph-name="p" unicode="p" horiz-adv-x="1222" 
d="M645 1116q219 0 352 -157t133 -416q0 -258 -133 -416t-352 -158q-103 0 -189.5 36t-138.5 97v-563h-163v1546h163v-100q55 60 142.5 95.5t185.5 35.5zM637 121q149 0 239.5 116.5t90.5 305.5q0 191 -90.5 307.5t-239.5 116.5q-138 0 -229 -90t-91 -224v-211
q0 -141 89.5 -231t230.5 -90z" />
    <glyph glyph-name="q" unicode="q" horiz-adv-x="1222" 
d="M905 1085h164v-1546h-164v563q-52 -61 -138.5 -97t-188.5 -36q-219 0 -352.5 158t-133.5 416q0 259 133.5 416t352.5 157q98 0 185 -35.5t142 -95.5v100zM586 121q141 0 230 90t89 231v211q0 134 -91 224t-228 90q-149 0 -239.5 -116.5t-90.5 -307.5q0 -189 90.5 -305.5
t239.5 -116.5z" />
    <glyph glyph-name="r" unicode="r" horiz-adv-x="794" 
d="M559 1116q110 0 215 -61l-69 -140q-94 52 -164 52q-101 0 -162.5 -77.5t-61.5 -209.5v-680h-163v1085h155v-104q33 60 101.5 97.5t148.5 37.5z" />
    <glyph glyph-name="s" unicode="s" horiz-adv-x="1107" 
d="M590 -31q-220 0 -362 104t-167 283l152 31q17 -126 118.5 -200t258.5 -74q136 0 212.5 47.5t76.5 132.5q0 83 -68 121t-266 71q-230 37 -325 106.5t-95 201.5q0 138 114 230.5t283 92.5q175 0 309 -96.5t160 -243.5l-149 -35q-20 103 -110 168.5t-210 65.5
q-101 0 -170 -52t-69 -128q0 -48 28.5 -77.5t98 -51.5t206.5 -45q224 -36 322 -110.5t98 -215.5q0 -149 -120.5 -237.5t-325.5 -88.5z" />
    <glyph glyph-name="t" unicode="t" horiz-adv-x="845" 
d="M279 1384l163 50v-349h346v-149h-346v-674q0 -68 33 -104.5t96 -36.5q49 -1 95.5 9t115.5 36l47 -146q-141 -51 -264 -51q-130 0 -208 77.5t-78 205.5v684h-263v149h263v299z" />
    <glyph glyph-name="u" unicode="u" horiz-adv-x="1204" 
d="M887 1085h164v-1085h-162v121q-50 -70 -135.5 -111t-182.5 -41q-197 0 -312.5 128t-115.5 335v653h164v-628q0 -162 69.5 -249t207.5 -87t219.5 87.5t81.5 240.5z" />
    <glyph glyph-name="v" unicode="v" horiz-adv-x="1126" 
d="M477 0l-446 1085h186l346 -884l346 884h187l-447 -1085h-172z" />
    <glyph glyph-name="w" unicode="w" horiz-adv-x="1533" 
d="M1350 1085h153l-276 -1085h-191l-268 840l-270 -840h-189l-278 1085h153l228 -890l286 890h138l286 -890z" />
    <glyph glyph-name="x" unicode="x" horiz-adv-x="1062" 
d="M1032 0h-188l-312 449l-313 -449h-188l401 563l-381 522h189l292 -407l291 407h189l-381 -522z" />
    <glyph glyph-name="y" unicode="y" horiz-adv-x="1101" 
d="M887 1085h184l-559 -1253q-37 -83 -96 -118.5t-158 -35.5q-44 0 -170 21l27 145q81 -16 143 -16q51 0 79 18t48 64l84 199l-438 976h186l334 -784z" />
    <glyph glyph-name="z" unicode="z" horiz-adv-x="1153" 
d="M113 0v135l710 809h-694v141h897v-133l-711 -811h725v-141h-927z" />
    <glyph glyph-name="braceleft" unicode="{" horiz-adv-x="763" 
d="M588 -430q-148 0 -231 81t-83 230v522q0 41 -22.5 63.5t-65.5 22.5h-94v160h94q43 0 65.5 22.5t22.5 63.5v479q0 149 83 230.5t231 81.5h125v-160h-92q-94 0 -133 -39t-39 -133v-438q0 -166 -138 -187q138 -21 138 -186v-481q0 -94 39 -133t133 -39h92v-160h-125z" />
    <glyph glyph-name="bar" unicode="|" horiz-adv-x="604" 
d="M215 -563v2150h174v-2150h-174z" />
    <glyph glyph-name="braceright" unicode="}" horiz-adv-x="763" 
d="M176 -430h-125v160h92q94 0 133 39t39 133v481q0 165 138 186q-138 21 -138 187v438q0 94 -39 133t-133 39h-92v160h125q148 0 230.5 -81.5t82.5 -230.5v-479q0 -41 23 -63.5t66 -22.5h94v-160h-94q-43 0 -66 -22.5t-23 -63.5v-522q0 -149 -82.5 -230t-230.5 -81z" />
    <glyph glyph-name="asciitilde" unicode="~" 
d="M227 555l-155 49q34 136 124.5 211.5t217.5 75.5q66 0 133 -27t112 -59t99 -59t98 -27q137 0 186 172l156 -49q-34 -136 -124 -211.5t-218 -75.5q-66 0 -132.5 27t-112 59t-99.5 59t-98 27q-135 0 -187 -172z" />
    <glyph glyph-name="uni00A0" unicode="&#xa0;" horiz-adv-x="563" 
 />
    <glyph glyph-name="exclamdown" unicode="&#xa1;" horiz-adv-x="659" 
d="M215 1085h231v-227h-231v227zM254 692h174v-1040h-174v1040z" />
    <glyph glyph-name="cent" unicode="&#xa2;" horiz-adv-x="1261" 
d="M659 121q122 0 203.5 69t108.5 205l157 -39q-32 -161 -135 -260t-254 -121v-227h-174v229q-186 34 -298.5 188t-112.5 378t112.5 377.5t298.5 187.5v240h174v-238q149 -22 253 -116.5t136 -243.5l-159 -37q-29 120 -112 187t-198 67q-152 0 -247 -118t-95 -306t95 -305
t247 -117z" />
    <glyph glyph-name="sterling" unicode="&#xa3;" 
d="M360 162h797v-162h-1042v162q137 79 199 165.5t67 188.5h-260v143h213q-16 23 -60 79t-69.5 93t-48.5 99.5t-23 126.5q0 176 128 291.5t329 115.5q226 0 375 -138t178 -374l-170 -24q-26 184 -126 280.5t-251 96.5q-127 0 -208 -73.5t-81 -187.5q0 -57 24 -110.5
t55 -89.5t69.5 -87.5t58.5 -97.5h381v-143h-352v-2q0 -213 -183 -352z" />
    <glyph glyph-name="currency" unicode="&#xa4;" horiz-adv-x="1400" 
d="M217 96l-84 84l170 168q-94 134 -94 316q0 183 94 317l-170 166l84 86l164 -164q132 113 319 113q188 0 320 -113l164 164l84 -86l-168 -166q92 -131 92 -317q0 -185 -92 -316l168 -168l-84 -84l-164 164q-131 -115 -320 -115q-188 0 -319 115zM700 307q137 0 227.5 99
t90.5 258t-90.5 258.5t-227.5 99.5t-227 -99.5t-90 -258.5t90 -258t227 -99z" />
    <glyph glyph-name="yen" unicode="&#xa5;" horiz-adv-x="1384" 
d="M1309 1434l-449 -697h359v-149h-439v-148h439v-149h-439v-291h-176v291h-430v149h430v148h-430v149h350l-446 697h207l407 -652l408 652h209z" />
    <glyph glyph-name="brokenbar" unicode="&#xa6;" horiz-adv-x="624" 
d="M215 707v880h195v-880h-195zM215 -563v880h195v-880h-195z" />
    <glyph glyph-name="section" unicode="&#xa7;" horiz-adv-x="1310" 
d="M1178 492q0 -93 -44.5 -163.5t-154.5 -152.5q84 -93 84 -219q0 -151 -108 -250.5t-277 -99.5q-181 0 -296.5 99.5t-135.5 270.5l172 21q13 -109 82 -170t176 -61q96 0 154.5 53.5t58.5 138.5q0 69 -49.5 119.5t-159.5 93.5l-260 98q-143 54 -215 134t-72 176
q0 93 45.5 164t155.5 151q-84 96 -84 219q0 151 107 250.5t276 99.5q182 0 297 -99.5t137 -270.5l-174 -21q-13 110 -81.5 171t-176.5 61q-95 0 -153 -54t-58 -139q0 -69 49.5 -119.5t159.5 -91.5l260 -98q142 -54 213.5 -134.5t71.5 -176.5zM856 270q71 46 109.5 99.5
t38.5 105.5q0 58 -43 100t-134 76l-276 107q-42 15 -94 43q-71 -45 -110.5 -98t-39.5 -105q0 -57 43.5 -99.5t134.5 -78.5l277 -107q42 -15 94 -43z" />
    <glyph glyph-name="dieresis" unicode="&#xa8;" horiz-adv-x="892" 
d="M133 1188v209h209v-209h-209zM551 1188v209h209v-209h-209z" />
    <glyph glyph-name="copyright" unicode="&#xa9;" horiz-adv-x="1361" 
d="M682 84q-239 0 -394 162t-155 411q0 250 155 412t394 162q238 0 392.5 -162t154.5 -412q0 -249 -154.5 -411t-392.5 -162zM682 213q182 0 296 123t114 321t-113.5 321.5t-296.5 123.5q-184 0 -298 -123.5t-114 -321.5t114.5 -321t297.5 -123zM686 307q-129 0 -200.5 92.5
t-71.5 257.5q0 163 72 256t200 93q101 0 168.5 -63t79.5 -169l-123 -16q-9 62 -41.5 96.5t-83.5 34.5q-71 0 -108 -60.5t-37 -171.5q0 -113 36.5 -173t108.5 -60q106 0 127 141l121 -16q-12 -113 -78 -177.5t-170 -64.5z" />
    <glyph glyph-name="ordfeminine" unicode="&#xaa;" horiz-adv-x="694" 
d="M670 893l16 -109q-46 -10 -86 -10q-44 0 -74.5 22t-42.5 62q-30 -43 -85 -67.5t-126 -24.5q-100 0 -162.5 52.5t-62.5 137.5q0 80 52.5 127t170.5 72q108 24 145.5 44t37.5 56q0 37 -35 60.5t-92 23.5q-66 0 -110.5 -35.5t-51.5 -95.5l-117 19q13 98 91 159.5t188 61.5
q114 0 180.5 -56t66.5 -153v-295q0 -57 48 -57q25 0 49 6zM453 1004v120q-10 -17 -39.5 -29t-112.5 -34q-75 -22 -104 -43.5t-29 -56.5q0 -40 30 -62t85 -22q74 0 122 36t48 91z" />
    <glyph glyph-name="guillemotleft" unicode="&#xab;" horiz-adv-x="1118" 
d="M594 963q-62 -205 -234 -388q172 -184 234 -387l-162 -53q-41 124 -109 226t-190 214q122 112 190 214t109 227zM985 963q-63 -206 -233 -388q171 -182 233 -387l-162 -53q-41 124 -109 226t-190 214q122 112 190 214t109 227z" />
    <glyph glyph-name="logicalnot" unicode="&#xac;" 
d="M979 315v418h-907v162h1085v-580h-178z" />
    <glyph glyph-name="uni00AD" unicode="&#xad;" horiz-adv-x="880" 
d="M133 551v162h615v-162h-615z" />
    <glyph glyph-name="registered" unicode="&#xae;" horiz-adv-x="1361" 
d="M682 1231q238 0 392.5 -162t154.5 -412q0 -249 -154.5 -411t-392.5 -162q-239 0 -394 162t-155 411q0 250 155 412t394 162zM682 213q182 0 296 123t114 321t-113.5 321.5t-296.5 123.5q-184 0 -298 -123.5t-114 -321.5t114.5 -321t297.5 -123zM961 791q0 -79 -49 -133.5
t-128 -65.5l127 -273h-125l-116 269h-76v-269h-117v674h268q95 0 155.5 -56t60.5 -146zM735 692q109 0 109 99q0 96 -109 96h-141v-195h141z" />
    <glyph glyph-name="macron" unicode="&#xaf;" horiz-adv-x="942" 
d="M133 1188v139h676v-139h-676z" />
    <glyph glyph-name="degree" unicode="&#xb0;" horiz-adv-x="970" 
d="M485 770q-157 0 -254.5 98t-97.5 250t97.5 249t254.5 97t255 -97t98 -249t-98 -250t-255 -98zM485 909q90 0 147.5 57.5t57.5 151.5q0 93 -57.5 151t-147.5 58t-146 -58t-56 -151q0 -95 56 -152t146 -57z" />
    <glyph glyph-name="plusminus" unicode="&#xb1;" 
d="M723 866h434v-159h-434v-412h-174v412h-436v159h436v430h174v-430zM123 0v160h1024v-160h-1024z" />
    <glyph glyph-name="acute" unicode="&#xb4;" horiz-adv-x="673" 
d="M133 1188l166 256h242l-228 -256h-180z" />
    <glyph glyph-name="paragraph" unicode="&#xb6;" horiz-adv-x="1331" 
d="M451 -246v1049q-135 0 -226.5 89.5t-91.5 225.5q0 138 93.5 227t238.5 89h692v-1680h-174v1520h-358v-1520h-174z" />
    <glyph glyph-name="periodcentered" unicode="&#xb7;" horiz-adv-x="788" 
d="M266 604v252h256v-252h-256z" />
    <glyph glyph-name="cedilla" unicode="&#xb8;" horiz-adv-x="757" 
d="M420 -92q88 0 146.5 -50t58.5 -126q0 -90 -65 -147.5t-173 -57.5q-87 0 -153.5 38t-100.5 105l111 64q26 -47 59 -66.5t84 -19.5q52 0 80.5 23t26.5 61q0 35 -29 56.5t-78 21.5q-53 0 -108 -35l-101 55l117 201h127l-78 -133q38 10 76 10z" />
    <glyph glyph-name="ordmasculine" unicode="&#xba;" horiz-adv-x="708" 
d="M354 760q-138 0 -222.5 94t-84.5 250q0 157 84 250.5t223 93.5t224.5 -93.5t85.5 -250.5q0 -156 -85.5 -250t-224.5 -94zM354 877q87 0 135 62.5t48 164.5q0 104 -48 165.5t-135 61.5q-86 0 -134 -62t-48 -165t48 -165t134 -62z" />
    <glyph glyph-name="guillemotright" unicode="&#xbb;" horiz-adv-x="1118" 
d="M594 575q-122 -112 -190 -214t-109 -226l-162 53q62 203 234 387q-172 183 -234 388l162 53q41 -125 109 -227t190 -214zM686 1016q41 -125 109 -227t190 -214q-122 -112 -190 -214t-109 -226l-162 53q62 203 234 387q-172 183 -234 388z" />
    <glyph glyph-name="onequarter" unicode="&#xbc;" horiz-adv-x="1615" 
d="M1079 1501l121 -53l-788 -1546l-119 51zM422 573h-141v660q-83 -80 -228 -121l-37 127q99 30 163 73t120 122h123v-861zM1470 301h111v-131h-111v-170h-141v170h-420v135q136 133 208.5 262t101.5 293h145q-55 -342 -295 -559h260v225h141v-225z" />
    <glyph glyph-name="onehalf" unicode="&#xbd;" horiz-adv-x="1689" 
d="M1079 1501l121 -53l-788 -1546l-119 51zM422 573h-141v660q-83 -80 -228 -121l-37 127q99 30 163 73t120 122h123v-861zM1640 604q0 -65 -24 -117t-62.5 -85.5t-86 -61t-97 -49.5t-92 -43.5t-74.5 -51t-41 -65.5h455v-131h-592v80q0 71 26 126t68 88.5t92 60.5
t100.5 50.5t92.5 48.5t68 63.5t26 88.5q0 62 -47.5 102t-120.5 40q-80 0 -129 -47t-49 -126q0 -53 23 -110l-134 -43q-30 79 -30 153q0 136 89.5 220t229.5 84q134 0 221.5 -77.5t87.5 -197.5z" />
    <glyph glyph-name="threequarters" unicode="&#xbe;" horiz-adv-x="1777" 
d="M1241 1501l121 -53l-789 -1546l-118 51zM645 846q0 -132 -88 -211.5t-219 -79.5q-136 0 -223 79.5t-99 217.5l140 18q15 -184 182 -184q70 0 118 42t48 118q0 158 -178 158h-133v94l264 205h-387v131h557l2 -142l-242 -188q117 -3 187.5 -71.5t70.5 -186.5zM1632 301h111
v-131h-111v-170h-141v170h-420v135q136 133 208 261.5t101 293.5h146q-55 -342 -295 -559h260v225h141v-225z" />
    <glyph glyph-name="questiondown" unicode="&#xbf;" 
d="M786 1085v-227h-231v227h231zM750 692v-321q-258 -76 -360.5 -151t-102.5 -195q0 -104 91 -174t232 -70q170 0 275.5 102t120.5 281l172 -19q-20 -241 -173 -382.5t-395 -141.5q-216 0 -356.5 116t-140.5 288q0 160 108 260.5t359 183.5v223h170z" />
    <glyph glyph-name="Agrave" unicode="&#xc0;" horiz-adv-x="1423" 
d="M803 1536h-180l-228 256h242zM1214 0l-159 395h-684l-160 -395h-180l590 1434h184l588 -1434h-179zM432 547h561l-280 690z" />
    <glyph glyph-name="Aacute" unicode="&#xc1;" horiz-adv-x="1423" 
d="M1018 1792l-227 -256h-181l166 256h242zM1214 0l-159 395h-684l-160 -395h-180l590 1434h184l588 -1434h-179zM432 547h561l-280 690z" />
    <glyph glyph-name="Acircumflex" unicode="&#xc2;" horiz-adv-x="1423" 
d="M713 1679l-146 -184l-125 94l140 178h262l139 -178l-125 -94zM1214 0l-159 395h-684l-160 -395h-180l590 1434h184l588 -1434h-179zM432 547h561l-280 690z" />
    <glyph glyph-name="Atilde" unicode="&#xc3;" horiz-adv-x="1423" 
d="M578 1606q-57 0 -72 -70h-121q6 102 56 158.5t134 56.5q56 0 149.5 -39t125.5 -39q57 0 72 68h118q-4 -101 -55 -158t-133 -57q-56 0 -149.5 40t-124.5 40zM1214 0l-159 395h-684l-160 -395h-180l590 1434h184l588 -1434h-179zM432 547h561l-280 690z" />
    <glyph glyph-name="Adieresis" unicode="&#xc4;" horiz-adv-x="1423" 
d="M608 1745v-209h-209v209h209zM1026 1745v-209h-209v209h209zM1214 0l-159 395h-684l-160 -395h-180l590 1434h184l588 -1434h-179zM432 547h561l-280 690z" />
    <glyph glyph-name="Aring" unicode="&#xc5;" horiz-adv-x="1423" 
d="M1214 0l-159 395h-684l-160 -395h-180l557 1354q-56 28 -87.5 78t-31.5 114q0 95 68.5 157t175.5 62q106 0 173.5 -62t67.5 -157q0 -64 -30.5 -114t-85.5 -78l555 -1354h-179zM713 1657q-51 0 -81 -30.5t-30 -80.5t30 -81t81 -31q49 0 79.5 31t30.5 81t-30.5 80.5
t-79.5 30.5zM432 547h561l-280 690z" />
    <glyph glyph-name="AE" unicode="&#xc6;" horiz-adv-x="1695" 
d="M1604 1282h-572v-455h504v-147h-504v-526h572v-154h-740v371h-516l-141 -371h-176l557 1434h1016v-152zM406 516h458v766h-166z" />
    <glyph glyph-name="Ccedilla" unicode="&#xc7;" horiz-adv-x="1318" 
d="M1247 459q-44 -220 -182.5 -348.5t-337.5 -139.5l-59 -104q38 10 75 10q88 0 146.5 -50t58.5 -126q0 -90 -65 -147.5t-172 -57.5q-87 0 -153.5 38.5t-100.5 105.5l110 63q26 -47 59.5 -66.5t84.5 -19.5t79.5 23t26.5 61q0 36 -28.5 57t-77.5 21q-54 0 -109 -35l-100 55
l102 176q-241 32 -376.5 231.5t-135.5 510.5q0 223 70.5 391t206.5 262t321 94q212 0 360 -125t195 -342l-166 -36q-41 168 -141.5 256t-247.5 88q-199 0 -310.5 -158.5t-111.5 -429.5t111.5 -428.5t310.5 -157.5q150 0 252 92.5t141 274.5z" />
    <glyph glyph-name="Egrave" unicode="&#xc8;" horiz-adv-x="1161" 
d="M717 1536h-180l-228 256h242zM174 0v1434h895v-160h-719v-459h549v-153h-549v-500h719v-162h-895z" />
    <glyph glyph-name="Eacute" unicode="&#xc9;" horiz-adv-x="1161" 
d="M524 1536l166 256h242l-227 -256h-181zM174 0v1434h895v-160h-719v-459h549v-153h-549v-500h719v-162h-895z" />
    <glyph glyph-name="Ecircumflex" unicode="&#xca;" horiz-adv-x="1161" 
d="M627 1679l-146 -184l-125 94l140 178h262l139 -178l-125 -94zM1069 1274h-719v-459h549v-153h-549v-500h719v-162h-895v1434h895v-160z" />
    <glyph glyph-name="Edieresis" unicode="&#xcb;" horiz-adv-x="1161" 
d="M313 1536v209h209v-209h-209zM731 1536v209h209v-209h-209zM174 0v1434h895v-160h-719v-459h549v-153h-549v-500h719v-162h-895z" />
    <glyph glyph-name="Igrave" unicode="&#xcc;" horiz-adv-x="526" 
d="M356 1536h-180l-227 256h241zM174 0v1434h178v-1434h-178z" />
    <glyph glyph-name="Iacute" unicode="&#xcd;" horiz-adv-x="526" 
d="M164 1536l166 256h241l-227 -256h-180zM174 0v1434h178v-1434h-178z" />
    <glyph glyph-name="Icircumflex" unicode="&#xce;" horiz-adv-x="526" 
d="M397 1767l140 -178l-125 -94l-146 184l-145 -184l-125 94l139 178h262zM174 0v1434h178v-1434h-178z" />
    <glyph glyph-name="Idieresis" unicode="&#xcf;" horiz-adv-x="526" 
d="M-47 1536v209h209v-209h-209zM371 1536v209h209v-209h-209zM174 0v1434h178v-1434h-178z" />
    <glyph glyph-name="Eth" unicode="&#xd0;" horiz-adv-x="1433" 
d="M653 1434q319 0 503.5 -184t184.5 -533q0 -350 -184 -533.5t-504 -183.5h-422v647h-200v156h200v631h422zM639 162q252 0 390 137t138 418q0 282 -138 419.5t-390 137.5h-233v-471h315v-156h-315v-485h233z" />
    <glyph glyph-name="Ntilde" unicode="&#xd1;" horiz-adv-x="1378" 
d="M553 1606q-57 0 -72 -70h-121q6 101 56 158t135 57q56 0 149 -39t125 -39q57 0 72 68h119q-4 -100 -55.5 -157.5t-133.5 -57.5q-56 0 -149.5 40t-124.5 40zM1030 1434h174v-1434h-178l-678 1141v-1141h-174v1434h178l678 -1141v1141z" />
    <glyph glyph-name="Ograve" unicode="&#xd2;" horiz-adv-x="1380" 
d="M780 1567h-180l-227 256h241zM690 -31q-186 0 -322.5 95.5t-206 263.5t-69.5 389q0 165 40.5 302.5t116 236t188.5 153.5t253 55t253 -55t188.5 -153.5t116 -236t40.5 -302.5q0 -221 -69.5 -389t-206 -263.5t-322.5 -95.5zM690 131q202 0 312 158.5t110 427.5
q0 271 -110 429.5t-312 158.5q-201 0 -311.5 -159t-110.5 -429q0 -269 110.5 -427.5t311.5 -158.5z" />
    <glyph glyph-name="Oacute" unicode="&#xd3;" horiz-adv-x="1380" 
d="M588 1567l166 256h241l-227 -256h-180zM690 -31q-186 0 -322.5 95.5t-206 263.5t-69.5 389q0 165 40.5 302.5t116 236t188.5 153.5t253 55t253 -55t188.5 -153.5t116 -236t40.5 -302.5q0 -221 -69.5 -389t-206 -263.5t-322.5 -95.5zM690 131q202 0 312 158.5t110 427.5
q0 271 -110 429.5t-312 158.5q-201 0 -311.5 -159t-110.5 -429q0 -269 110.5 -427.5t311.5 -158.5z" />
    <glyph glyph-name="Ocircumflex" unicode="&#xd4;" horiz-adv-x="1380" 
d="M690 1710l-145 -184l-125 94l139 178h262l140 -178l-125 -94zM690 1464q140 0 253 -55t188.5 -153.5t116 -236t40.5 -302.5q0 -221 -69.5 -389t-206 -263.5t-322.5 -95.5t-322.5 95.5t-206 263.5t-69.5 389q0 165 40.5 302.5t116 236t188.5 153.5t253 55zM690 131
q202 0 312 158.5t110 427.5q0 271 -110 429.5t-312 158.5q-201 0 -311.5 -159t-110.5 -429q0 -269 110.5 -427.5t311.5 -158.5z" />
    <glyph glyph-name="Otilde" unicode="&#xd5;" horiz-adv-x="1380" 
d="M829 1556q-56 0 -149.5 40t-124.5 40q-57 0 -72 -69h-121q6 101 56 158t135 57q56 0 149 -39t125 -39q57 0 72 68h119q-4 -101 -55.5 -158.5t-133.5 -57.5zM690 -31q-186 0 -322.5 95.5t-206 263.5t-69.5 389q0 165 40.5 302.5t116 236t188.5 153.5t253 55t253 -55
t188.5 -153.5t116 -236t40.5 -302.5q0 -221 -69.5 -389t-206 -263.5t-322.5 -95.5zM690 131q202 0 312 158.5t110 427.5q0 271 -110 429.5t-312 158.5q-201 0 -311.5 -159t-110.5 -429q0 -269 110.5 -427.5t311.5 -158.5z" />
    <glyph glyph-name="Odieresis" unicode="&#xd6;" horiz-adv-x="1380" 
d="M377 1567v209h209v-209h-209zM795 1567v209h209v-209h-209zM690 -31q-186 0 -322.5 95.5t-206 263.5t-69.5 389q0 165 40.5 302.5t116 236t188.5 153.5t253 55t253 -55t188.5 -153.5t116 -236t40.5 -302.5q0 -221 -69.5 -389t-206 -263.5t-322.5 -95.5zM690 131
q202 0 312 158.5t110 427.5q0 271 -110 429.5t-312 158.5q-201 0 -311.5 -159t-110.5 -429q0 -269 110.5 -427.5t311.5 -158.5z" />
    <glyph glyph-name="multiply" unicode="&#xd7;" 
d="M1075 1010l-313 -314l307 -307l-113 -113l-307 308l-313 -314l-123 123l313 314l-309 309l113 112l309 -309l313 314z" />
    <glyph glyph-name="Oslash" unicode="&#xd8;" horiz-adv-x="1380" 
d="M1096 1296q94 -98 143 -247t49 -332q0 -221 -69.5 -389t-206 -263.5t-322.5 -95.5q-171 0 -301 82l-84 -147l-117 61l97 170q-94 100 -143.5 249t-49.5 333q0 165 40.5 302.5t116 236t188.5 153.5t253 55q171 0 301 -82l84 148l117 -64zM260 717q0 -275 109 -432l546 962
q-96 68 -225 68q-206 0 -318 -161.5t-112 -436.5zM690 119q206 0 318 161.5t112 436.5q0 276 -108 432l-547 -963q95 -67 225 -67z" />
    <glyph glyph-name="Ugrave" unicode="&#xd9;" horiz-adv-x="1445" 
d="M813 1536h-180l-227 256h241zM725 -31q-251 0 -406 142.5t-155 388.5v934h176v-924q0 -184 102.5 -281.5t282.5 -97.5q178 0 280.5 97t102.5 282v924h174v-934q0 -246 -154 -388.5t-403 -142.5z" />
    <glyph glyph-name="Uacute" unicode="&#xda;" horiz-adv-x="1445" 
d="M621 1536l165 256h242l-227 -256h-180zM725 -31q-251 0 -406 142.5t-155 388.5v934h176v-924q0 -184 102.5 -281.5t282.5 -97.5q178 0 280.5 97t102.5 282v924h174v-934q0 -246 -154 -388.5t-403 -142.5z" />
    <glyph glyph-name="Ucircumflex" unicode="&#xdb;" horiz-adv-x="1445" 
d="M723 1679l-145 -184l-125 94l139 178h262l139 -178l-125 -94zM1108 1434h174v-934q0 -246 -154 -388.5t-403 -142.5q-251 0 -406 142.5t-155 388.5v934h176v-924q0 -184 102.5 -281.5t282.5 -97.5q178 0 280.5 97t102.5 282v924z" />
    <glyph glyph-name="Udieresis" unicode="&#xdc;" horiz-adv-x="1445" 
d="M410 1536v209h208v-209h-208zM827 1536v209h209v-209h-209zM725 -31q-251 0 -406 142.5t-155 388.5v934h176v-924q0 -184 102.5 -281.5t282.5 -97.5q178 0 280.5 97t102.5 282v924h174v-934q0 -246 -154 -388.5t-403 -142.5z" />
    <glyph glyph-name="Yacute" unicode="&#xdd;" horiz-adv-x="1261" 
d="M938 1792l-227 -256h-181l166 256h242zM1038 1434h209l-528 -820v-614h-176v614l-527 820h207l408 -652z" />
    <glyph glyph-name="Thorn" unicode="&#xde;" horiz-adv-x="1300" 
d="M766 1159q204 0 333.5 -121.5t129.5 -306.5t-129.5 -307.5t-333.5 -122.5h-414v-301h-178v1434h178v-275h414zM752 463q137 0 220 73.5t83 194.5q0 120 -83.5 194t-219.5 74h-400v-536h400z" />
    <glyph glyph-name="germandbls" unicode="&#xdf;" horiz-adv-x="1228" 
d="M891 766q111 -40 178.5 -134t67.5 -214q0 -191 -129 -304.5t-344 -113.5h-177v152h177q144 0 226.5 70t82.5 196q0 130 -84 198t-225 68h-177v145h140q131 0 206.5 64t75.5 176q0 107 -78.5 176.5t-203.5 69.5q-155 0 -232.5 -80t-77.5 -231v-1004h-163v1010
q0 208 125.5 331t347.5 123q193 0 319.5 -112t126.5 -283q0 -105 -49 -183.5t-133 -119.5z" />
    <glyph glyph-name="agrave" unicode="&#xe0;" horiz-adv-x="1148" 
d="M635 1219h-180l-228 256h242zM1110 150l25 -140q-73 -16 -136 -16q-144 0 -182 135q-50 -70 -141 -109.5t-209 -39.5q-170 0 -272.5 84t-102.5 223q0 133 87 213t278 123q193 42 261 80t68 106q0 74 -66 119t-175 45q-123 0 -202.5 -67.5t-96.5 -182.5l-154 25
q25 166 149 267t304 101q183 0 291 -90t108 -244v-540q0 -48 20.5 -76.5t61.5 -28.5q24 0 84 13zM786 375v237q-15 -29 -78 -55.5t-219 -67.5q-131 -35 -185 -80t-54 -118q0 -80 57 -124t162 -44q139 0 228 71t89 181z" />
    <glyph glyph-name="aacute" unicode="&#xe1;" horiz-adv-x="1148" 
d="M850 1475l-227 -256h-181l166 256h242zM1110 150l25 -140q-73 -16 -136 -16q-144 0 -182 135q-50 -70 -141 -109.5t-209 -39.5q-170 0 -272.5 84t-102.5 223q0 133 87 213t278 123q193 42 261 80t68 106q0 74 -66 119t-175 45q-123 0 -202.5 -67.5t-96.5 -182.5l-154 25
q25 166 149 267t304 101q183 0 291 -90t108 -244v-540q0 -48 20.5 -76.5t61.5 -28.5q24 0 84 13zM786 375v237q-15 -29 -78 -55.5t-219 -67.5q-131 -35 -185 -80t-54 -118q0 -80 57 -124t162 -44q139 0 228 71t89 181z" />
    <glyph glyph-name="acircumflex" unicode="&#xe2;" horiz-adv-x="1148" 
d="M545 1362l-146 -184l-125 94l140 178h262l139 -178l-125 -94zM1110 150l25 -140q-73 -16 -136 -16q-144 0 -182 135q-50 -70 -141 -109.5t-209 -39.5q-170 0 -272.5 84t-102.5 223q0 133 87 213t278 123q193 42 261 80t68 106q0 74 -66 119t-175 45q-123 0 -202.5 -67.5
t-96.5 -182.5l-154 25q25 166 149 267t304 101q183 0 291 -90t108 -244v-540q0 -48 20.5 -76.5t61.5 -28.5q24 0 84 13zM786 375v237q-15 -29 -78 -55.5t-219 -67.5q-131 -35 -185 -80t-54 -118q0 -80 57 -124t162 -44q139 0 228 71t89 181z" />
    <glyph glyph-name="atilde" unicode="&#xe3;" horiz-adv-x="1148" 
d="M410 1288q-57 0 -72 -69h-121q6 101 56 158t135 57q56 0 149 -39t125 -39q57 0 72 67h118q-4 -101 -55 -158t-133 -57q-56 0 -149.5 40t-124.5 40zM1110 150l25 -140q-73 -16 -136 -16q-144 0 -182 135q-50 -70 -141 -109.5t-209 -39.5q-170 0 -272.5 84t-102.5 223
q0 133 87 213t278 123q193 42 261 80t68 106q0 74 -66 119t-175 45q-123 0 -202.5 -67.5t-96.5 -182.5l-154 25q25 166 149 267t304 101q183 0 291 -90t108 -244v-540q0 -48 20.5 -76.5t61.5 -28.5q24 0 84 13zM786 375v237q-15 -29 -78 -55.5t-219 -67.5q-131 -35 -185 -80
t-54 -118q0 -80 57 -124t162 -44q139 0 228 71t89 181z" />
    <glyph glyph-name="adieresis" unicode="&#xe4;" horiz-adv-x="1148" 
d="M440 1427v-208h-209v208h209zM858 1427v-208h-209v208h209zM1110 150l25 -140q-73 -16 -136 -16q-144 0 -182 135q-50 -70 -141 -109.5t-209 -39.5q-170 0 -272.5 84t-102.5 223q0 133 87 213t278 123q193 42 261 80t68 106q0 74 -66 119t-175 45q-123 0 -202.5 -67.5
t-96.5 -182.5l-154 25q25 166 149 267t304 101q183 0 291 -90t108 -244v-540q0 -48 20.5 -76.5t61.5 -28.5q24 0 84 13zM786 375v237q-15 -29 -78 -55.5t-219 -67.5q-131 -35 -185 -80t-54 -118q0 -80 57 -124t162 -44q139 0 228 71t89 181z" />
    <glyph glyph-name="aring" unicode="&#xe5;" horiz-adv-x="1148" 
d="M1110 150l25 -140q-73 -16 -136 -16q-144 0 -182 135q-50 -70 -141 -109.5t-209 -39.5q-170 0 -272.5 84t-102.5 223q0 133 87 213t278 123q193 42 261 80t68 106q0 74 -66 119t-175 45q-123 0 -202.5 -67.5t-96.5 -182.5l-154 25q17 117 87 204t177 129q-55 61 -55 148
q0 95 68.5 157t175.5 62q106 0 173.5 -62t67.5 -157q0 -88 -53 -144q101 -39 156 -117t55 -186v-540q0 -48 20.5 -76.5t61.5 -28.5q24 0 84 13zM434 1229q0 -50 30.5 -81.5t80.5 -31.5q49 0 79.5 31.5t30.5 81.5q0 49 -30.5 79.5t-79.5 30.5q-51 0 -81 -30t-30 -80zM786 375
v237q-15 -29 -78 -55.5t-219 -67.5q-131 -35 -185 -80t-54 -118q0 -80 57 -124t162 -44q139 0 228 71t89 181z" />
    <glyph glyph-name="ae" unicode="&#xe6;" horiz-adv-x="1841" 
d="M936 473q15 -164 100 -258t221 -94q116 0 193 59t129 174l139 -75q-60 -144 -178.5 -227t-282.5 -83q-132 0 -233 58.5t-162 165.5q-48 -103 -150.5 -163.5t-238.5 -60.5q-172 0 -276.5 89.5t-104.5 230.5q0 135 87 214t282 122q180 39 244.5 78t64.5 104
q0 71 -62.5 115.5t-162.5 44.5q-121 0 -198.5 -64t-94.5 -180l-160 25q25 167 148.5 267.5t304.5 100.5q127 0 215.5 -48t128.5 -136q129 184 368 184q223 0 357.5 -156t134.5 -417v-70h-813zM1257 967q-136 0 -226.5 -97.5t-96.5 -257.5h647q-7 164 -97 259.5t-227 95.5z
M770 375v231q-18 -30 -79 -57.5t-193 -61.5q-138 -37 -190 -79t-52 -119q0 -75 57.5 -121.5t159.5 -46.5q126 0 211.5 74.5t85.5 179.5z" />
    <glyph glyph-name="ccedilla" unicode="&#xe7;" horiz-adv-x="1138" 
d="M598 121q122 0 203 69t108 205l158 -39q-35 -173 -150.5 -273.5t-281.5 -111.5l-60 -104q38 10 76 10q88 0 146.5 -50t58.5 -126q0 -90 -65 -147.5t-173 -57.5q-86 0 -152.5 38.5t-100.5 105.5l110 63q26 -47 59 -66.5t84 -19.5q52 0 80.5 23t26.5 61q0 35 -29 56.5
t-78 21.5q-53 0 -108 -35l-100 55l102 176q-189 31 -304.5 186t-115.5 382q0 253 141.5 413t364.5 160q176 0 304.5 -98.5t164.5 -267.5l-160 -37q-29 120 -111.5 187t-197.5 67q-152 0 -247 -118t-95 -306t95 -305t247 -117z" />
    <glyph glyph-name="egrave" unicode="&#xe8;" horiz-adv-x="1165" 
d="M672 1219h-180l-228 256h242zM252 475q17 -167 105 -263.5t225 -96.5q225 0 321 237l135 -69q-59 -146 -176.5 -230t-279.5 -84q-222 0 -356 157.5t-134 416.5t134.5 416t355.5 157t356 -156.5t135 -416.5v-68h-821zM582 973q-138 0 -230.5 -99t-99.5 -264h657
q-14 166 -102 264.5t-225 98.5z" />
    <glyph glyph-name="eacute" unicode="&#xe9;" horiz-adv-x="1165" 
d="M887 1475l-228 -256h-180l166 256h242zM252 475q17 -167 105 -263.5t225 -96.5q225 0 321 237l135 -69q-59 -146 -176.5 -230t-279.5 -84q-222 0 -356 157.5t-134 416.5t134.5 416t355.5 157t356 -156.5t135 -416.5v-68h-821zM582 973q-138 0 -230.5 -99t-99.5 -264h657
q-14 166 -102 264.5t-225 98.5z" />
    <glyph glyph-name="ecircumflex" unicode="&#xea;" horiz-adv-x="1165" 
d="M582 1362l-146 -184l-125 94l140 178h262l139 -178l-125 -94zM252 475q17 -167 105 -263.5t225 -96.5q225 0 321 237l135 -69q-59 -146 -176.5 -230t-279.5 -84q-222 0 -356 157.5t-134 416.5t134.5 416t355.5 157t356 -156.5t135 -416.5v-68h-821zM582 973
q-138 0 -230.5 -99t-99.5 -264h657q-14 166 -102 264.5t-225 98.5z" />
    <glyph glyph-name="edieresis" unicode="&#xeb;" horiz-adv-x="1165" 
d="M477 1427v-208h-209v208h209zM895 1427v-208h-209v208h209zM252 475q17 -167 105 -263.5t225 -96.5q225 0 321 237l135 -69q-59 -146 -176.5 -230t-279.5 -84q-222 0 -356 157.5t-134 416.5t134.5 416t355.5 157t356 -156.5t135 -416.5v-68h-821zM582 973
q-138 0 -230.5 -99t-99.5 -264h657q-14 166 -102 264.5t-225 98.5z" />
    <glyph glyph-name="igrave" unicode="&#xec;" horiz-adv-x="471" 
d="M348 1188h-180l-229 256h243zM154 0v1085h163v-1085h-163z" />
    <glyph glyph-name="iacute" unicode="&#xed;" horiz-adv-x="471" 
d="M133 1188l166 256h242l-228 -256h-180zM154 0v1085h163v-1085h-163z" />
    <glyph glyph-name="icircumflex" unicode="&#xee;" horiz-adv-x="471" 
d="M367 1419l139 -178l-125 -94l-145 184l-146 -184l-125 94l139 178h263zM154 0v1085h163v-1085h-163z" />
    <glyph glyph-name="idieresis" unicode="&#xef;" horiz-adv-x="471" 
d="M-20 1188v209h208v-209h-208zM283 1188v209h209v-209h-209zM154 0v1085h163v-1085h-163z" />
    <glyph glyph-name="eth" unicode="&#xf0;" horiz-adv-x="1187" 
d="M842 1237q254 -360 254 -698q0 -261 -136 -415.5t-366 -154.5q-227 0 -364.5 149.5t-137.5 397.5q0 243 136.5 394t355.5 151q143 0 235 -70q-61 113 -125 207l-248 -68l-28 93l215 57q-85 102 -129 150v6h178q41 -44 98 -115l246 65l29 -92zM594 121q156 0 247 109
t91 298q0 174 -91.5 278.5t-246.5 104.5q-156 0 -247 -106t-91 -289q0 -181 91.5 -288t246.5 -107z" />
    <glyph glyph-name="ntilde" unicode="&#xf1;" horiz-adv-x="1249" 
d="M512 1288q-57 0 -72 -69h-121q6 101 56 158t135 57q56 0 149 -39t125 -39q57 0 72 67h119q-4 -100 -55.5 -157.5t-133.5 -57.5q-56 0 -149.5 40t-124.5 40zM670 1116q195 0 315.5 -120t120.5 -320v-676h-164v649q0 155 -75.5 236.5t-217.5 81.5q-150 0 -240 -87t-90 -233
l-2 -647h-163v1085h163v-118q55 69 148.5 109t204.5 40z" />
    <glyph glyph-name="ograve" unicode="&#xf2;" horiz-adv-x="1187" 
d="M684 1219h-180l-228 256h242zM594 -31q-226 0 -364 157t-138 417t138 416.5t364 156.5t364 -156.5t138 -416.5t-138 -417t-364 -157zM594 121q157 0 247.5 116t90.5 306q0 192 -90 308t-248 116q-156 0 -247 -116.5t-91 -307.5q0 -190 91 -306t247 -116z" />
    <glyph glyph-name="oacute" unicode="&#xf3;" horiz-adv-x="1187" 
d="M492 1219l165 256h242l-227 -256h-180zM594 -31q-226 0 -364 157t-138 417t138 416.5t364 156.5t364 -156.5t138 -416.5t-138 -417t-364 -157zM594 121q157 0 247.5 116t90.5 306q0 192 -90 308t-248 116q-156 0 -247 -116.5t-91 -307.5q0 -190 91 -306t247 -116z" />
    <glyph glyph-name="ocircumflex" unicode="&#xf4;" horiz-adv-x="1187" 
d="M594 1362l-145 -184l-125 94l139 178h262l139 -178l-125 -94zM594 1116q226 0 364 -156.5t138 -416.5t-138 -417t-364 -157t-364 157t-138 417t138 416.5t364 156.5zM594 121q157 0 247.5 116t90.5 306q0 192 -90 308t-248 116q-156 0 -247 -116.5t-91 -307.5
q0 -190 91 -306t247 -116z" />
    <glyph glyph-name="otilde" unicode="&#xf5;" horiz-adv-x="1187" 
d="M733 1208q-56 0 -149.5 40t-124.5 40q-57 0 -72 -69h-121q6 101 56 158t135 57q56 0 149 -39t125 -39q57 0 72 67h119q-4 -100 -55.5 -157.5t-133.5 -57.5zM594 -31q-226 0 -364 157t-138 417t138 416.5t364 156.5t364 -156.5t138 -416.5t-138 -417t-364 -157zM594 121
q157 0 247.5 116t90.5 306q0 192 -90 308t-248 116q-156 0 -247 -116.5t-91 -307.5q0 -190 91 -306t247 -116z" />
    <glyph glyph-name="odieresis" unicode="&#xf6;" horiz-adv-x="1187" 
d="M281 1219v208h208v-208h-208zM698 1219v208h209v-208h-209zM594 -31q-226 0 -364 157t-138 417t138 416.5t364 156.5t364 -156.5t138 -416.5t-138 -417t-364 -157zM594 121q157 0 247.5 116t90.5 306q0 192 -90 308t-248 116q-156 0 -247 -116.5t-91 -307.5
q0 -190 91 -306t247 -116z" />
    <glyph glyph-name="divide" unicode="&#xf7;" 
d="M524 1010v217h221v-217h-221zM174 614v177h922v-177h-922zM524 174v217h221v-217h-221z" />
    <glyph glyph-name="oslash" unicode="&#xf8;" horiz-adv-x="1187" 
d="M971 944q125 -153 125 -401q0 -260 -138 -417t-364 -157q-163 0 -285 86l-94 -127l-102 68l106 143q-127 152 -127 404q0 260 138 416.5t364 156.5q167 0 287 -88l96 129l98 -74zM252 543q0 -164 65 -273l476 637q-81 66 -199 66q-159 0 -250.5 -118.5t-91.5 -311.5z
M594 115q159 0 251.5 117.5t92.5 310.5q0 158 -64 270l-475 -637q83 -61 195 -61z" />
    <glyph glyph-name="ugrave" unicode="&#xf9;" horiz-adv-x="1204" 
d="M692 1188h-180l-227 256h241zM887 1085h164v-1085h-162v121q-50 -70 -135.5 -111t-182.5 -41q-197 0 -312.5 128t-115.5 335v653h164v-628q0 -162 69.5 -249t207.5 -87t219.5 87.5t81.5 240.5z" />
    <glyph glyph-name="uacute" unicode="&#xfa;" horiz-adv-x="1204" 
d="M907 1444l-227 -256h-180l166 256h241zM887 1085h164v-1085h-162v121q-50 -70 -135.5 -111t-182.5 -41q-197 0 -312.5 128t-115.5 335v653h164v-628q0 -162 69.5 -249t207.5 -87t219.5 87.5t81.5 240.5z" />
    <glyph glyph-name="ucircumflex" unicode="&#xfb;" horiz-adv-x="1204" 
d="M602 1331l-145 -184l-125 94l139 178h262l139 -178l-124 -94zM887 1085h164v-1085h-162v121q-50 -70 -135.5 -111t-182.5 -41q-197 0 -312.5 128t-115.5 335v653h164v-628q0 -162 69.5 -249t207.5 -87t219.5 87.5t81.5 240.5z" />
    <glyph glyph-name="udieresis" unicode="&#xfc;" horiz-adv-x="1204" 
d="M498 1397v-209h-209v209h209zM915 1397v-209h-208v209h208zM887 1085h164v-1085h-162v121q-50 -70 -135.5 -111t-182.5 -41q-197 0 -312.5 128t-115.5 335v653h164v-628q0 -162 69.5 -249t207.5 -87t219.5 87.5t81.5 240.5z" />
    <glyph glyph-name="yacute" unicode="&#xfd;" horiz-adv-x="1101" 
d="M856 1444l-227 -256h-180l165 256h242zM887 1085h184l-559 -1253q-37 -83 -96 -118.5t-158 -35.5q-44 0 -170 21l27 145q81 -16 143 -16q51 0 79 18t48 64l84 199l-438 976h186l334 -784z" />
    <glyph glyph-name="thorn" unicode="&#xfe;" horiz-adv-x="1222" 
d="M645 1116q219 0 352 -157t133 -416q0 -258 -133 -416t-352 -158q-103 0 -189.5 36t-138.5 97v-563h-163v1895h163v-449q55 60 142.5 95.5t185.5 35.5zM637 121q149 0 239.5 116.5t90.5 305.5q0 191 -90.5 307.5t-239.5 116.5q-138 0 -229 -90t-91 -224v-211
q0 -141 89.5 -231t230.5 -90z" />
    <glyph glyph-name="ydieresis" unicode="&#xff;" horiz-adv-x="1101" 
d="M446 1397v-209h-208v209h208zM864 1397v-209h-209v209h209zM887 1085h184l-559 -1253q-37 -83 -96 -118.5t-158 -35.5q-44 0 -170 21l27 145q81 -16 143 -16q51 0 79 18t48 64l84 199l-438 976h186l334 -784z" />
    <glyph glyph-name="Amacron" unicode="&#x100;" horiz-adv-x="1423" 
d="M1051 1675v-139h-676v139h676zM1214 0l-159 395h-684l-160 -395h-180l590 1434h184l588 -1434h-179zM432 547h561l-280 690z" />
    <glyph glyph-name="amacron" unicode="&#x101;" horiz-adv-x="1148" 
d="M883 1358v-139h-676v139h676zM1110 150l25 -140q-73 -16 -136 -16q-144 0 -182 135q-50 -70 -141 -109.5t-209 -39.5q-170 0 -272.5 84t-102.5 223q0 133 87 213t278 123q193 42 261 80t68 106q0 74 -66 119t-175 45q-123 0 -202.5 -67.5t-96.5 -182.5l-154 25
q25 166 149 267t304 101q183 0 291 -90t108 -244v-540q0 -48 20.5 -76.5t61.5 -28.5q24 0 84 13zM786 375v237q-15 -29 -78 -55.5t-219 -67.5q-131 -35 -185 -80t-54 -118q0 -80 57 -124t162 -44q139 0 228 71t89 181z" />
    <glyph glyph-name="Abreve" unicode="&#x102;" horiz-adv-x="1423" 
d="M713 1516q-119 0 -193 68.5t-74 184.5h117q9 -54 47 -84t103 -30q128 0 151 114h115q0 -116 -74 -184.5t-192 -68.5zM1214 0l-159 395h-684l-160 -395h-180l590 1434h184l588 -1434h-179zM432 547h561l-280 690z" />
    <glyph glyph-name="abreve" unicode="&#x103;" horiz-adv-x="1148" 
d="M545 1198q-118 0 -192 69t-74 185h116q9 -54 47.5 -84.5t102.5 -30.5q128 0 151 115h115q0 -116 -74 -185t-192 -69zM1110 150l25 -140q-73 -16 -136 -16q-144 0 -182 135q-50 -70 -141 -109.5t-209 -39.5q-170 0 -272.5 84t-102.5 223q0 133 87 213t278 123
q193 42 261 80t68 106q0 74 -66 119t-175 45q-123 0 -202.5 -67.5t-96.5 -182.5l-154 25q25 166 149 267t304 101q183 0 291 -90t108 -244v-540q0 -48 20.5 -76.5t61.5 -28.5q24 0 84 13zM786 375v237q-15 -29 -78 -55.5t-219 -67.5q-131 -35 -185 -80t-54 -118
q0 -80 57 -124t162 -44q139 0 228 71t89 181z" />
    <glyph glyph-name="Aogonek" unicode="&#x104;" horiz-adv-x="1423" 
d="M1350 -223l63 -127q-139 -74 -254 -74q-108 0 -172.5 48.5t-64.5 129.5q0 84 68 153.5t210 129.5l-145 358h-684l-160 -395h-180l590 1434h184l588 -1434h-101q-122 -69 -172.5 -118.5t-50.5 -100.5q0 -68 90 -68q83 0 191 64zM432 547h561l-280 690z" />
    <glyph glyph-name="aogonek" unicode="&#x105;" horiz-adv-x="1148" 
d="M1098 -223l63 -127q-139 -74 -254 -74q-108 0 -172.5 48.5t-64.5 129.5q0 151 231 262q-64 36 -84 113q-50 -70 -141 -109.5t-209 -39.5q-170 0 -272.5 84t-102.5 223q0 133 87 213t278 123q193 42 261 80t68 106q0 74 -66 119t-175 45q-123 0 -202.5 -67.5t-96.5 -182.5
l-154 25q25 166 149 267t304 101q183 0 291 -90t108 -244v-540q0 -48 20.5 -76.5t61.5 -28.5q24 0 84 13l25 -140q-72 -14 -105 -16q-116 -66 -164.5 -115t-48.5 -98q0 -68 90 -68q83 0 191 64zM786 375v237q-15 -29 -78 -55.5t-219 -67.5q-131 -35 -185 -80t-54 -118
q0 -80 57 -124t162 -44q139 0 228 71t89 181z" />
    <glyph glyph-name="Cacute" unicode="&#x106;" horiz-adv-x="1318" 
d="M588 1567l166 256h241l-227 -256h-180zM690 -31q-184 0 -320.5 94.5t-207 263t-70.5 390.5q0 223 70.5 391t206.5 262t321 94q212 0 360 -125t195 -342l-166 -36q-41 168 -141.5 256t-247.5 88q-199 0 -310.5 -158.5t-111.5 -429.5t111.5 -428.5t310.5 -157.5
q150 0 252 92.5t141 274.5l164 -39q-45 -230 -194 -360t-363 -130z" />
    <glyph glyph-name="cacute" unicode="&#x107;" horiz-adv-x="1138" 
d="M496 1219l166 256h241l-227 -256h-180zM598 -31q-223 0 -364.5 160.5t-141.5 413.5t141.5 413t364.5 160q176 0 304.5 -98.5t164.5 -267.5l-160 -37q-29 120 -111.5 187t-197.5 67q-152 0 -247 -118t-95 -306t95 -305t247 -117q122 0 203 69t108 205l158 -39
q-36 -183 -162 -285t-307 -102z" />
    <glyph glyph-name="Ccircumflex" unicode="&#x108;" horiz-adv-x="1318" 
d="M690 1710l-145 -184l-125 94l139 178h262l140 -178l-125 -94zM1083 498l164 -39q-45 -230 -194 -360t-363 -130q-184 0 -320.5 94.5t-207 263t-70.5 390.5q0 223 70.5 391t206.5 262t321 94q212 0 360 -125t195 -342l-166 -36q-41 168 -141.5 256t-247.5 88
q-199 0 -310.5 -158.5t-111.5 -429.5t111.5 -428.5t310.5 -157.5q150 0 252 92.5t141 274.5z" />
    <glyph glyph-name="ccircumflex" unicode="&#x109;" horiz-adv-x="1138" 
d="M598 1362l-145 -184l-125 94l139 178h262l139 -178l-125 -94zM598 121q122 0 203 69t108 205l158 -39q-36 -183 -162 -285t-307 -102q-223 0 -364.5 160.5t-141.5 413.5t141.5 413t364.5 160q176 0 304.5 -98.5t164.5 -267.5l-160 -37q-29 120 -111.5 187t-197.5 67
q-152 0 -247 -118t-95 -306t95 -305t247 -117z" />
    <glyph glyph-name="Cdotaccent" unicode="&#x10a;" horiz-adv-x="1318" 
d="M582 1567v215h217v-215h-217zM690 -31q-184 0 -320.5 94.5t-207 263t-70.5 390.5q0 223 70.5 391t206.5 262t321 94q212 0 360 -125t195 -342l-166 -36q-41 168 -141.5 256t-247.5 88q-199 0 -310.5 -158.5t-111.5 -429.5t111.5 -428.5t310.5 -157.5q150 0 252 92.5
t141 274.5l164 -39q-45 -230 -194 -360t-363 -130z" />
    <glyph glyph-name="cdotaccent" unicode="&#x10b;" horiz-adv-x="1138" 
d="M489 1219v215h218v-215h-218zM598 -31q-223 0 -364.5 160.5t-141.5 413.5t141.5 413t364.5 160q176 0 304.5 -98.5t164.5 -267.5l-160 -37q-29 120 -111.5 187t-197.5 67q-152 0 -247 -118t-95 -306t95 -305t247 -117q122 0 203 69t108 205l158 -39q-36 -183 -162 -285
t-307 -102z" />
    <glyph glyph-name="Ccaron" unicode="&#x10c;" horiz-adv-x="1318" 
d="M821 1567h-262l-139 178l125 94l145 -184l146 184l125 -94zM1083 498l164 -39q-45 -230 -194 -360t-363 -130q-184 0 -320.5 94.5t-207 263t-70.5 390.5q0 223 70.5 391t206.5 262t321 94q212 0 360 -125t195 -342l-166 -36q-41 168 -141.5 256t-247.5 88
q-199 0 -310.5 -158.5t-111.5 -429.5t111.5 -428.5t310.5 -157.5q150 0 252 92.5t141 274.5z" />
    <glyph glyph-name="ccaron" unicode="&#x10d;" horiz-adv-x="1138" 
d="M729 1219h-262l-139 178l125 94l145 -184l145 184l125 -94zM598 121q122 0 203 69t108 205l158 -39q-36 -183 -162 -285t-307 -102q-223 0 -364.5 160.5t-141.5 413.5t141.5 413t364.5 160q176 0 304.5 -98.5t164.5 -267.5l-160 -37q-29 120 -111.5 187t-197.5 67
q-152 0 -247 -118t-95 -306t95 -305t247 -117z" />
    <glyph glyph-name="Dcaron" unicode="&#x10e;" horiz-adv-x="1376" 
d="M797 1536h-262l-140 178l125 94l146 -184l145 184l125 -94zM596 1434q319 0 503.5 -184t184.5 -533q0 -350 -184 -533.5t-504 -183.5h-422v1434h422zM582 162q252 0 390 137t138 418q0 282 -138 419.5t-390 137.5h-234v-1112h234z" />
    <glyph glyph-name="dcaron" unicode="&#x10f;" horiz-adv-x="1384" 
d="M911 979v455h164v-1434h-164v104q-55 -62 -141.5 -98.5t-185.5 -36.5q-221 0 -356.5 159t-135.5 415q0 258 136 415.5t356 157.5q103 0 189 -37t138 -100zM1190 1434h215v-170q0 -92 -53 -146.5t-150 -62.5v96q36 7 50 25t14 57h-76v201zM592 121q145 0 232 88t87 233
v211q0 138 -88 226t-229 88q-155 0 -246.5 -114.5t-91.5 -309.5q0 -193 90.5 -307.5t245.5 -114.5z" />
    <glyph glyph-name="Dcroat" unicode="&#x110;" horiz-adv-x="1433" 
d="M653 1434q319 0 503.5 -184t184.5 -533q0 -350 -184 -533.5t-504 -183.5h-422v647h-200v156h200v631h422zM639 162q252 0 390 137t138 418q0 282 -138 419.5t-390 137.5h-233v-471h315v-156h-315v-485h233z" />
    <glyph glyph-name="dcroat" unicode="&#x111;" horiz-adv-x="1234" 
d="M1239 1335v-129h-164v-1206h-164v104q-55 -62 -141.5 -98.5t-185.5 -36.5q-221 0 -356.5 159t-135.5 415q0 258 136 415.5t356 157.5q103 0 189 -37t138 -100v227h-297v129h297v99h164v-99h164zM592 121q145 0 232 88t87 233v211q0 138 -88 226t-229 88
q-155 0 -246.5 -114.5t-91.5 -309.5q0 -193 90.5 -307.5t245.5 -114.5z" />
    <glyph glyph-name="Emacron" unicode="&#x112;" horiz-adv-x="1161" 
d="M289 1536v139h676v-139h-676zM174 0v1434h895v-160h-719v-459h549v-153h-549v-500h719v-162h-895z" />
    <glyph glyph-name="emacron" unicode="&#x113;" horiz-adv-x="1165" 
d="M920 1358v-139h-676v139h676zM252 475q17 -167 105 -263.5t225 -96.5q225 0 321 237l135 -69q-59 -146 -176.5 -230t-279.5 -84q-222 0 -356 157.5t-134 416.5t134.5 416t355.5 157t356 -156.5t135 -416.5v-68h-821zM582 973q-138 0 -230.5 -99t-99.5 -264h657
q-14 166 -102 264.5t-225 98.5z" />
    <glyph glyph-name="Ebreve" unicode="&#x114;" horiz-adv-x="1161" 
d="M627 1516q-119 0 -193 68.5t-74 184.5h117q9 -54 47 -84t103 -30q128 0 151 114h115q0 -116 -74 -184.5t-192 -68.5zM174 0v1434h895v-160h-719v-459h549v-153h-549v-500h719v-162h-895z" />
    <glyph glyph-name="ebreve" unicode="&#x115;" horiz-adv-x="1165" 
d="M582 1198q-118 0 -192.5 69t-74.5 185h117q9 -54 47.5 -84.5t102.5 -30.5q128 0 151 115h115q0 -116 -74 -185t-192 -69zM252 475q17 -167 105 -263.5t225 -96.5q225 0 321 237l135 -69q-59 -146 -176.5 -230t-279.5 -84q-222 0 -356 157.5t-134 416.5t134.5 416
t355.5 157t356 -156.5t135 -416.5v-68h-821zM582 973q-138 0 -230.5 -99t-99.5 -264h657q-14 166 -102 264.5t-225 98.5z" />
    <glyph glyph-name="Edotaccent" unicode="&#x116;" horiz-adv-x="1161" 
d="M518 1536v215h217v-215h-217zM174 0v1434h895v-160h-719v-459h549v-153h-549v-500h719v-162h-895z" />
    <glyph glyph-name="edotaccent" unicode="&#x117;" horiz-adv-x="1165" 
d="M690 1434v-215h-217v215h217zM252 475q17 -167 105 -263.5t225 -96.5q225 0 321 237l135 -69q-59 -146 -176.5 -230t-279.5 -84q-222 0 -356 157.5t-134 416.5t134.5 416t355.5 157t356 -156.5t135 -416.5v-68h-821zM582 973q-138 0 -230.5 -99t-99.5 -264h657
q-14 166 -102 264.5t-225 98.5z" />
    <glyph glyph-name="Eogonek" unicode="&#x118;" horiz-adv-x="1161" 
d="M1051 -223l63 -127q-139 -74 -254 -74q-108 0 -172.5 48.5t-64.5 129.5q0 140 198 246h-647v1434h895v-160h-719v-459h549v-153h-549v-500h719v-162h-76q-122 -69 -172.5 -118.5t-50.5 -100.5q0 -68 90 -68q83 0 191 64z" />
    <glyph glyph-name="eogonek" unicode="&#x119;" horiz-adv-x="1165" 
d="M252 475q17 -167 105 -263.5t225 -96.5q225 0 321 237l135 -69q-43 -107 -120 -182.5t-181 -108.5q-114 -66 -161.5 -114t-47.5 -97q0 -68 90 -68q83 0 191 64l63 -127q-139 -74 -254 -74q-108 0 -172.5 48.5t-64.5 129.5q0 123 149 217q-201 19 -319.5 174t-118.5 398
q0 259 134.5 416t355.5 157t356 -156.5t135 -416.5v-68h-821zM582 973q-138 0 -230.5 -99t-99.5 -264h657q-14 166 -102 264.5t-225 98.5z" />
    <glyph glyph-name="Ecaron" unicode="&#x11a;" horiz-adv-x="1161" 
d="M758 1536h-262l-140 178l125 94l146 -184l145 184l125 -94zM1069 1274h-719v-459h549v-153h-549v-500h719v-162h-895v1434h895v-160z" />
    <glyph glyph-name="ecaron" unicode="&#x11b;" horiz-adv-x="1165" 
d="M713 1219h-262l-140 178l125 94l146 -184l145 184l125 -94zM252 475q17 -167 105 -263.5t225 -96.5q225 0 321 237l135 -69q-59 -146 -176.5 -230t-279.5 -84q-222 0 -356 157.5t-134 416.5t134.5 416t355.5 157t356 -156.5t135 -416.5v-68h-821zM582 973
q-138 0 -230.5 -99t-99.5 -264h657q-14 166 -102 264.5t-225 98.5z" />
    <glyph glyph-name="Gcircumflex" unicode="&#x11c;" horiz-adv-x="1396" 
d="M690 1710l-145 -184l-125 94l139 178h262l140 -178l-125 -94zM598 721h655v-721h-106l-43 152q-152 -183 -414 -183q-184 0 -320.5 94.5t-207 263t-70.5 390.5q0 223 70.5 391t206.5 262t321 94q211 0 358 -124.5t197 -342.5l-166 -36q-41 168 -141.5 256t-247.5 88
q-199 0 -310.5 -158.5t-111.5 -429.5t111.5 -428.5t310.5 -157.5q175 0 281 108.5t106 266.5v53h-479v162z" />
    <glyph glyph-name="gcircumflex" unicode="&#x11d;" horiz-adv-x="1163" 
d="M545 1362l-146 -184l-125 94l140 178h262l139 -178l-125 -94zM743 102q179 -21 270 -88.5t91 -197.5q0 -146 -135 -227t-381 -81q-240 0 -378 80.5t-138 221.5q0 74 44.5 139.5t127.5 105.5q-129 63 -129 185t127 192q-109 115 -109 275q0 177 127.5 293t325.5 116
q125 0 225 -49q32 91 103.5 148.5t170.5 76.5l37 -145q-79 -11 -133 -49t-76 -99q127 -114 127 -292q0 -176 -128 -293t-326 -117q-139 0 -248 61q-76 -35 -76 -98q0 -53 51 -83t158 -42zM586 973q-129 0 -211 -75t-82 -191q0 -115 82 -191t211 -76q130 0 212.5 75.5
t82.5 191.5t-82.5 191t-212.5 75zM588 -348q356 0 356 168q0 68 -53 103.5t-168 47.5l-303 37q-3 0 -7.5 1t-6.5 1q-79 -19 -127 -71.5t-48 -118.5q0 -81 93 -124.5t264 -43.5z" />
    <glyph glyph-name="Gbreve" unicode="&#x11e;" horiz-adv-x="1396" 
d="M690 1546q-118 0 -192 69t-74 185h117q20 -114 149 -114t152 114h114q0 -116 -74 -185t-192 -69zM598 721h655v-721h-106l-43 152q-152 -183 -414 -183q-184 0 -320.5 94.5t-207 263t-70.5 390.5q0 223 70.5 391t206.5 262t321 94q211 0 358 -124.5t197 -342.5l-166 -36
q-41 168 -141.5 256t-247.5 88q-199 0 -310.5 -158.5t-111.5 -429.5t111.5 -428.5t310.5 -157.5q175 0 281 108.5t106 266.5v53h-479v162z" />
    <glyph glyph-name="gbreve" unicode="&#x11f;" horiz-adv-x="1163" 
d="M545 1198q-118 0 -192 69t-74 185h116q9 -54 47.5 -84.5t102.5 -30.5q128 0 151 115h115q0 -116 -74 -185t-192 -69zM743 102q179 -21 270 -88.5t91 -197.5q0 -146 -135 -227t-381 -81q-240 0 -378 80.5t-138 221.5q0 74 44.5 139.5t127.5 105.5q-129 63 -129 185
t127 192q-109 115 -109 275q0 177 127.5 293t325.5 116q125 0 225 -49q32 91 103.5 148.5t170.5 76.5l37 -145q-79 -11 -133 -49t-76 -99q127 -114 127 -292q0 -176 -128 -293t-326 -117q-139 0 -248 61q-76 -35 -76 -98q0 -53 51 -83t158 -42zM586 973q-129 0 -211 -75
t-82 -191q0 -115 82 -191t211 -76q130 0 212.5 75.5t82.5 191.5t-82.5 191t-212.5 75zM588 -348q356 0 356 168q0 68 -53 103.5t-168 47.5l-303 37q-3 0 -7.5 1t-6.5 1q-79 -19 -127 -71.5t-48 -118.5q0 -81 93 -124.5t264 -43.5z" />
    <glyph glyph-name="Gdotaccent" unicode="&#x120;" horiz-adv-x="1396" 
d="M799 1782v-215h-217v215h217zM598 721h655v-721h-106l-43 152q-152 -183 -414 -183q-184 0 -320.5 94.5t-207 263t-70.5 390.5q0 223 70.5 391t206.5 262t321 94q211 0 358 -124.5t197 -342.5l-166 -36q-41 168 -141.5 256t-247.5 88q-199 0 -310.5 -158.5t-111.5 -429.5
t111.5 -428.5t310.5 -157.5q175 0 281 108.5t106 266.5v53h-479v162z" />
    <glyph glyph-name="gdotaccent" unicode="&#x121;" horiz-adv-x="1163" 
d="M653 1434v-215h-217v215h217zM743 102q179 -21 270 -88.5t91 -197.5q0 -146 -135 -227t-381 -81q-240 0 -378 80.5t-138 221.5q0 74 44.5 139.5t127.5 105.5q-129 63 -129 185t127 192q-109 115 -109 275q0 177 127.5 293t325.5 116q125 0 225 -49q32 91 103.5 148.5
t170.5 76.5l37 -145q-79 -11 -133 -49t-76 -99q127 -114 127 -292q0 -176 -128 -293t-326 -117q-139 0 -248 61q-76 -35 -76 -98q0 -53 51 -83t158 -42zM586 973q-129 0 -211 -75t-82 -191q0 -115 82 -191t211 -76q130 0 212.5 75.5t82.5 191.5t-82.5 191t-212.5 75z
M588 -348q356 0 356 168q0 68 -53 103.5t-168 47.5l-303 37q-3 0 -7.5 1t-6.5 1q-79 -19 -127 -71.5t-48 -118.5q0 -81 93 -124.5t264 -43.5z" />
    <glyph glyph-name="Gcommaaccent" unicode="&#x122;" horiz-adv-x="1396" 
d="M598 721h655v-721h-106l-43 152q-152 -183 -414 -183q-184 0 -320.5 94.5t-207 263t-70.5 390.5q0 223 70.5 391t206.5 262t321 94q211 0 358 -124.5t197 -342.5l-166 -36q-41 168 -141.5 256t-247.5 88q-199 0 -310.5 -158.5t-111.5 -429.5t111.5 -428.5t310.5 -157.5
q175 0 281 108.5t106 266.5v53h-479v162zM582 -334v201h215v-170q0 -92 -53 -146.5t-150 -62.5v96q36 7 49.5 25t13.5 57h-75z" />
    <glyph glyph-name="gcommaaccent" unicode="&#x123;" horiz-adv-x="1163" 
d="M653 1419v-200h-215v170q0 92 53 146t150 62v-96q-36 -7 -49.5 -25t-13.5 -57h75zM743 102q179 -21 270 -88.5t91 -197.5q0 -146 -135 -227t-381 -81q-240 0 -378 80.5t-138 221.5q0 74 44.5 139.5t127.5 105.5q-129 63 -129 185t127 192q-109 115 -109 275
q0 177 127.5 293t325.5 116q125 0 225 -49q32 91 103.5 148.5t170.5 76.5l37 -145q-79 -11 -133 -49t-76 -99q127 -114 127 -292q0 -176 -128 -293t-326 -117q-139 0 -248 61q-76 -35 -76 -98q0 -53 51 -83t158 -42zM586 973q-129 0 -211 -75t-82 -191q0 -115 82 -191
t211 -76q130 0 212.5 75.5t82.5 191.5t-82.5 191t-212.5 75zM588 -348q356 0 356 168q0 68 -53 103.5t-168 47.5l-303 37q-3 0 -7.5 1t-6.5 1q-79 -19 -127 -71.5t-48 -118.5q0 -81 93 -124.5t264 -43.5z" />
    <glyph glyph-name="Hcircumflex" unicode="&#x124;" horiz-adv-x="1396" 
d="M698 1679l-145 -184l-125 94l139 178h262l140 -178l-125 -94zM1047 1434h176v-1434h-176v659h-697v-659h-176v1434h176v-615h697v615z" />
    <glyph glyph-name="hcircumflex" unicode="&#x125;" horiz-adv-x="1249" 
d="M643 1679l-145 -184l-125 94l139 178h262l139 -178l-125 -94zM670 1116q195 0 315.5 -120t120.5 -320v-676h-164v649q0 155 -75.5 236.5t-217.5 81.5q-150 0 -240 -87t-90 -233l-2 -647h-163v1434h163v-467q55 69 148.5 109t204.5 40z" />
    <glyph glyph-name="Hbar" unicode="&#x126;" horiz-adv-x="1396" 
d="M1380 1194v-145h-157v-1049h-176v659h-697v-659h-176v1049h-158v145h158v240h176v-240h697v240h176v-240h157zM1047 819v230h-697v-230h697z" />
    <glyph glyph-name="hbar" unicode="&#x127;" horiz-adv-x="1251" 
d="M672 1116q195 0 315.5 -120t120.5 -320v-676h-164v649q0 155 -75.5 236.5t-217.5 81.5q-150 0 -239.5 -87t-89.5 -233l-3 -647h-163v1210h-105v125h105v99h163v-99h353v-125h-353v-243q55 69 148.5 109t204.5 40z" />
    <glyph glyph-name="Itilde" unicode="&#x128;" horiz-adv-x="526" 
d="M406 1526q-56 0 -150 40t-125 40q-57 0 -72 -70h-120q6 102 56 158.5t134 56.5q56 0 149 -39t125 -39q57 0 72 68h119q-4 -101 -55 -158t-133 -57zM174 0v1434h178v-1434h-178z" />
    <glyph glyph-name="itilde" unicode="&#x129;" horiz-adv-x="471" 
d="M375 1178q-56 0 -150 39.5t-125 39.5q-56 0 -71 -69h-121q6 102 56 158.5t134 56.5q56 0 149.5 -39t125.5 -39q56 0 71 68h119q-4 -101 -55 -158t-133 -57zM154 0v1085h163v-1085h-163z" />
    <glyph glyph-name="Imacron" unicode="&#x12a;" horiz-adv-x="526" 
d="M-72 1536v139h676v-139h-676zM174 0v1434h178v-1434h-178z" />
    <glyph glyph-name="imacron" unicode="&#x12b;" horiz-adv-x="471" 
d="M-37 1188v139h545v-139h-545zM154 0v1085h163v-1085h-163z" />
    <glyph glyph-name="Ibreve" unicode="&#x12c;" horiz-adv-x="526" 
d="M266 1516q-118 0 -192 68.5t-74 184.5h117q20 -114 149 -114t152 114h114q0 -116 -74 -184.5t-192 -68.5zM174 0v1434h178v-1434h-178z" />
    <glyph glyph-name="ibreve" unicode="&#x12d;" horiz-adv-x="471" 
d="M236 1167q-118 0 -192.5 69t-74.5 185h117q9 -54 47 -84t103 -30q128 0 151 114h115q0 -116 -74 -185t-192 -69zM154 0v1085h163v-1085h-163z" />
    <glyph glyph-name="Iogonek" unicode="&#x12e;" horiz-adv-x="526" 
d="M401 -223l64 -127q-139 -74 -254 -74q-108 0 -173 48.5t-65 129.5q0 139 201 246v1434h178v-1434h-8q-122 -69 -172.5 -118.5t-50.5 -100.5q0 -68 90 -68q82 0 190 64z" />
    <glyph glyph-name="iogonek" unicode="&#x12f;" horiz-adv-x="471" 
d="M344 1458v-219h-217v219h217zM367 -223l63 -127q-139 -74 -254 -74q-108 0 -172.5 48.5t-64.5 129.5q0 144 215 254v1077h163v-1085h-8q-122 -69 -172.5 -118.5t-50.5 -100.5q0 -68 90 -68q83 0 191 64z" />
    <glyph glyph-name="Idotaccent" unicode="&#x130;" horiz-adv-x="526" 
d="M158 1536v215h217v-215h-217zM174 0v1434h178v-1434h-178z" />
    <glyph glyph-name="dotlessi" unicode="&#x131;" horiz-adv-x="471" 
d="M154 0v1085h163v-1085h-163z" />
    <glyph glyph-name="Jcircumflex" unicode="&#x134;" horiz-adv-x="946" 
d="M469 1679l-145 -184l-125 94l139 178h262l139 -178l-125 -94zM57 1434h725v-850q0 -286 -158 -435t-470 -149h-97v162h97q241 0 347.5 103t106.5 329v678h-551v162z" />
    <glyph glyph-name="jcircumflex" unicode="&#x135;" horiz-adv-x="751" 
d="M627 1419l139 -178l-125 -94l-145 184l-146 -184l-125 94l140 178h262zM53 1085h545v-1077q0 -183 -100.5 -290t-268.5 -107q-127 0 -260 51l51 141q107 -43 197 -43q105 0 161 64.5t56 189.5v922h-381v149z" />
    <glyph glyph-name="Kcommaaccent" unicode="&#x136;" horiz-adv-x="1359" 
d="M705 801l638 -801h-219l-534 680l-240 -277v-403h-176v1434h176v-789l678 789h227zM616 -303v201h215v-170q0 -92 -52.5 -147t-149.5 -62v96q36 7 49.5 25t13.5 57h-76z" />
    <glyph glyph-name="kcommaaccent" unicode="&#x137;" horiz-adv-x="1101" 
d="M598 641l487 -641h-192l-399 541l-177 -187v-354h-163v1434h163v-875l488 526h219zM498 -303v201h215v-170q0 -92 -53 -146.5t-150 -62.5v96q36 7 49.5 25t13.5 57h-75z" />
    <glyph glyph-name="kgreenlandic" unicode="&#x138;" horiz-adv-x="1101" 
d="M893 0l-404 537l-172 -183v-354h-163v1085h163v-526l488 526h219l-426 -444l487 -641h-192z" />
    <glyph glyph-name="Lacute" unicode="&#x139;" horiz-adv-x="1169" 
d="M219 1536l166 256h242l-228 -256h-180zM174 1434h176v-1272h762v-162h-938v1434z" />
    <glyph glyph-name="lacute" unicode="&#x13a;" horiz-adv-x="471" 
d="M133 1536l166 256h242l-228 -256h-180zM154 0v1434h163v-1434h-163z" />
    <glyph glyph-name="Lcommaaccent" unicode="&#x13b;" horiz-adv-x="1169" 
d="M174 1434h176v-1272h762v-162h-938v1434zM588 -481v96q36 7 49.5 25t13.5 57h-76v201h216v-170q0 -92 -53 -146.5t-150 -62.5z" />
    <glyph glyph-name="lcommaaccent" unicode="&#x13c;" horiz-adv-x="471" 
d="M154 0v1434h163v-1434h-163zM139 -481v96q36 7 50 25t14 57h-76v201h215v-170q0 -92 -53 -146.5t-150 -62.5z" />
    <glyph glyph-name="Lcaron" unicode="&#x13d;" horiz-adv-x="1169" 
d="M174 1434h176v-1272h762v-162h-938v1434zM905 1055v96q36 7 50 25t14 57h-76v201h215v-170q0 -92 -53 -146.5t-150 -62.5z" />
    <glyph glyph-name="lcaron" unicode="&#x13e;" horiz-adv-x="624" 
d="M154 0v1434h163v-1434h-163zM442 1055v96q36 7 50 25t14 57h-76v201h215v-170q0 -92 -53 -146.5t-150 -62.5z" />
    <glyph glyph-name="Ldot" unicode="&#x13f;" horiz-adv-x="1148" 
d="M174 1434h176v-1272h762v-162h-938v1434zM707 690v215h217v-215h-217z" />
    <glyph glyph-name="ldot" unicode="&#x140;" horiz-adv-x="626" 
d="M154 0v1434h163v-1434h-163zM422 604v252h256v-252h-256z" />
    <glyph glyph-name="Lslash" unicode="&#x141;" horiz-adv-x="1290" 
d="M471 162h762v-162h-938v606l-207 -114l-63 116l270 154v672h176v-582l311 178l68 -121l-379 -213v-534z" />
    <glyph glyph-name="lslash" unicode="&#x142;" horiz-adv-x="638" 
d="M694 1008l-297 -246v-762h-164v649l-213 -174l-77 94l290 244v621h164v-506l215 178z" />
    <glyph glyph-name="Nacute" unicode="&#x143;" horiz-adv-x="1378" 
d="M993 1792l-227 -256h-180l166 256h241zM1030 1434h174v-1434h-178l-678 1141v-1141h-174v1434h178l678 -1141v1141z" />
    <glyph glyph-name="nacute" unicode="&#x144;" horiz-adv-x="1249" 
d="M952 1475l-227 -256h-180l166 256h241zM670 1116q195 0 315.5 -120t120.5 -320v-676h-164v649q0 155 -75.5 236.5t-217.5 81.5q-150 0 -240 -87t-90 -233l-2 -647h-163v1085h163v-118q55 69 148.5 109t204.5 40z" />
    <glyph glyph-name="Ncommaaccent" unicode="&#x145;" horiz-adv-x="1378" 
d="M1030 1434h174v-1434h-178l-678 1141v-1141h-174v1434h178l678 -1141v1141zM580 -303v201h215v-170q0 -92 -53 -146.5t-150 -62.5v96q36 7 49.5 25t13.5 57h-75z" />
    <glyph glyph-name="ncommaaccent" unicode="&#x146;" horiz-adv-x="1249" 
d="M670 1116q195 0 315.5 -120t120.5 -320v-676h-164v649q0 155 -75.5 236.5t-217.5 81.5q-150 0 -240 -87t-90 -233l-2 -647h-163v1085h163v-118q55 69 148.5 109t204.5 40zM502 -303v201h215v-170q0 -92 -53 -146.5t-150 -62.5v96q36 7 50 25t14 57h-76z" />
    <glyph glyph-name="Ncaron" unicode="&#x147;" horiz-adv-x="1378" 
d="M819 1536h-262l-139 178l125 94l145 -184l146 184l124 -94zM1030 1434h174v-1434h-178l-678 1141v-1141h-174v1434h178l678 -1141v1141z" />
    <glyph glyph-name="ncaron" unicode="&#x148;" horiz-adv-x="1249" 
d="M778 1219h-262l-139 178l125 94l145 -184l146 184l125 -94zM670 1116q195 0 315.5 -120t120.5 -320v-676h-164v649q0 155 -75.5 236.5t-217.5 81.5q-150 0 -240 -87t-90 -233l-2 -647h-163v1085h163v-118q55 69 148.5 109t204.5 40z" />
    <glyph glyph-name="Eng" unicode="&#x14a;" horiz-adv-x="1378" 
d="M1030 1434h174v-1514q0 -178 -104 -279.5t-273 -101.5h-92v160h82q103 0 158 61.5t55 176.5v63l-682 1143v-1143h-174v1434h178l678 -1135v1135z" />
    <glyph glyph-name="eng" unicode="&#x14b;" horiz-adv-x="1249" 
d="M670 1116q195 0 315.5 -120t120.5 -320v-776q0 -160 -96 -260.5t-250 -100.5h-98v150h88q87 0 139.5 63.5t52.5 163.5v733q0 155 -75.5 236.5t-217.5 81.5q-150 0 -240 -87t-90 -233l-2 -647h-163v1085h163v-118q55 69 148.5 109t204.5 40z" />
    <glyph glyph-name="Omacron" unicode="&#x14c;" horiz-adv-x="1380" 
d="M352 1567v139h676v-139h-676zM690 -31q-186 0 -322.5 95.5t-206 263.5t-69.5 389q0 165 40.5 302.5t116 236t188.5 153.5t253 55t253 -55t188.5 -153.5t116 -236t40.5 -302.5q0 -221 -69.5 -389t-206 -263.5t-322.5 -95.5zM690 131q202 0 312 158.5t110 427.5
q0 271 -110 429.5t-312 158.5q-201 0 -311.5 -159t-110.5 -429q0 -269 110.5 -427.5t311.5 -158.5z" />
    <glyph glyph-name="omacron" unicode="&#x14d;" horiz-adv-x="1187" 
d="M256 1219v139h676v-139h-676zM594 -31q-226 0 -364 157t-138 417t138 416.5t364 156.5t364 -156.5t138 -416.5t-138 -417t-364 -157zM594 121q157 0 247.5 116t90.5 306q0 192 -90 308t-248 116q-156 0 -247 -116.5t-91 -307.5q0 -190 91 -306t247 -116z" />
    <glyph glyph-name="Obreve" unicode="&#x14e;" horiz-adv-x="1380" 
d="M690 1546q-118 0 -192 69t-74 185h117q20 -114 149 -114t152 114h114q0 -116 -74 -185t-192 -69zM690 -31q-186 0 -322.5 95.5t-206 263.5t-69.5 389q0 165 40.5 302.5t116 236t188.5 153.5t253 55t253 -55t188.5 -153.5t116 -236t40.5 -302.5q0 -221 -69.5 -389
t-206 -263.5t-322.5 -95.5zM690 131q202 0 312 158.5t110 427.5q0 271 -110 429.5t-312 158.5q-201 0 -311.5 -159t-110.5 -429q0 -269 110.5 -427.5t311.5 -158.5z" />
    <glyph glyph-name="obreve" unicode="&#x14f;" horiz-adv-x="1187" 
d="M594 1198q-118 0 -192 69t-74 185h116q9 -54 47.5 -84.5t102.5 -30.5q128 0 151 115h115q0 -116 -74 -185t-192 -69zM594 -31q-226 0 -364 157t-138 417t138 416.5t364 156.5t364 -156.5t138 -416.5t-138 -417t-364 -157zM594 121q157 0 247.5 116t90.5 306
q0 192 -90 308t-248 116q-156 0 -247 -116.5t-91 -307.5q0 -190 91 -306t247 -116z" />
    <glyph glyph-name="Ohungarumlaut" unicode="&#x150;" horiz-adv-x="1380" 
d="M412 1567l157 243h230l-215 -243h-172zM743 1567l158 243h229l-215 -243h-172zM690 -31q-186 0 -322.5 95.5t-206 263.5t-69.5 389q0 165 40.5 302.5t116 236t188.5 153.5t253 55t253 -55t188.5 -153.5t116 -236t40.5 -302.5q0 -221 -69.5 -389t-206 -263.5t-322.5 -95.5
zM690 131q202 0 312 158.5t110 427.5q0 271 -110 429.5t-312 158.5q-201 0 -311.5 -159t-110.5 -429q0 -269 110.5 -427.5t311.5 -158.5z" />
    <glyph glyph-name="ohungarumlaut" unicode="&#x151;" horiz-adv-x="1187" 
d="M315 1219l158 243h229l-215 -243h-172zM647 1219l158 243h229l-215 -243h-172zM594 -31q-226 0 -364 157t-138 417t138 416.5t364 156.5t364 -156.5t138 -416.5t-138 -417t-364 -157zM594 121q157 0 247.5 116t90.5 306q0 192 -90 308t-248 116q-156 0 -247 -116.5
t-91 -307.5q0 -190 91 -306t247 -116z" />
    <glyph glyph-name="OE" unicode="&#x152;" horiz-adv-x="1863" 
d="M1772 1274h-613v-443h545v-155h-545v-514h613v-162h-787v82q-128 -113 -319 -113q-126 0 -231.5 50.5t-181.5 144.5t-118.5 235.5t-42.5 317.5q0 352 158 549.5t416 197.5q192 0 319 -112v82h787v-160zM664 131q209 0 321 170v834q-112 170 -321 170q-180 0 -288 -152.5
t-108 -435.5t108 -434.5t288 -151.5z" />
    <glyph glyph-name="oe" unicode="&#x153;" horiz-adv-x="2009" 
d="M1096 475q17 -167 104.5 -263.5t224.5 -96.5q226 0 322 237l135 -69q-58 -146 -176.5 -230t-280.5 -84q-136 0 -241.5 62t-167.5 174q-65 -113 -174 -174.5t-248 -61.5q-226 0 -364 157t-138 417t138 416.5t364 156.5q139 0 248 -62t174 -175q62 113 167.5 175t241.5 62
q221 0 356.5 -156.5t135.5 -416.5v-68h-821zM1425 973q-138 0 -230 -99t-99 -264h657q-14 166 -102 264.5t-226 98.5zM594 121q157 0 247.5 116t90.5 306q0 192 -90 308t-248 116q-156 0 -247 -116.5t-91 -307.5q0 -190 91 -306t247 -116z" />
    <glyph glyph-name="Racute" unicode="&#x154;" horiz-adv-x="1329" 
d="M971 1792l-228 -256h-180l166 256h242zM1108 399l129 -399h-203l-104 356q-74 256 -357 256h-223v-612h-176v1434h598q199 0 322 -115.5t123 -294.5q0 -144 -82 -250t-222 -143q135 -52 195 -232zM350 774h408q129 0 206.5 65.5t77.5 184.5t-77.5 184.5t-206.5 65.5h-408
v-500z" />
    <glyph glyph-name="racute" unicode="&#x155;" horiz-adv-x="794" 
d="M741 1475l-227 -256h-180l166 256h241zM559 1116q110 0 215 -61l-69 -140q-94 52 -164 52q-101 0 -162.5 -77.5t-61.5 -209.5v-680h-163v1085h155v-104q33 60 101.5 97.5t148.5 37.5z" />
    <glyph glyph-name="Rcommaaccent" unicode="&#x156;" horiz-adv-x="1329" 
d="M1108 399l129 -399h-203l-104 356q-74 256 -357 256h-223v-612h-176v1434h598q199 0 322 -115.5t123 -294.5q0 -144 -82 -250t-222 -143q135 -52 195 -232zM350 774h408q129 0 206.5 65.5t77.5 184.5t-77.5 184.5t-206.5 65.5h-408v-500zM586 -303v201h215v-170
q0 -92 -53 -146.5t-150 -62.5v96q36 7 50 25t14 57h-76z" />
    <glyph glyph-name="rcommaaccent" unicode="&#x157;" horiz-adv-x="794" 
d="M559 1116q110 0 215 -61l-69 -140q-94 52 -164 52q-101 0 -162.5 -77.5t-61.5 -209.5v-680h-163v1085h155v-104q33 60 101.5 97.5t148.5 37.5zM129 -303v201h215v-170q0 -92 -53 -146.5t-150 -62.5v96q36 7 50 25t14 57h-76z" />
    <glyph glyph-name="Rcaron" unicode="&#x158;" horiz-adv-x="1329" 
d="M797 1536h-262l-140 178l125 94l146 -184l145 184l125 -94zM1108 399l129 -399h-203l-104 356q-74 256 -357 256h-223v-612h-176v1434h598q199 0 322 -115.5t123 -294.5q0 -144 -82 -250t-222 -143q135 -52 195 -232zM350 774h408q129 0 206.5 65.5t77.5 184.5
t-77.5 184.5t-206.5 65.5h-408v-500z" />
    <glyph glyph-name="rcaron" unicode="&#x159;" horiz-adv-x="794" 
d="M567 1219h-262l-139 178l125 94l145 -184l146 184l125 -94zM559 1116q110 0 215 -61l-69 -140q-94 52 -164 52q-101 0 -162.5 -77.5t-61.5 -209.5v-680h-163v1085h155v-104q33 60 101.5 97.5t148.5 37.5z" />
    <glyph glyph-name="Sacute" unicode="&#x15a;" horiz-adv-x="1275" 
d="M506 1567l166 256h241l-227 -256h-180zM666 -31q-261 0 -421.5 130.5t-197.5 373.5l172 25q59 -367 447 -367q178 0 274 69.5t96 198.5q0 102 -84 160t-313 115q-285 70 -396.5 157t-111.5 238q0 174 133.5 284.5t345.5 110.5t368 -119t193 -309l-174 -30
q-26 134 -133 216.5t-254 82.5q-136 0 -220.5 -65.5t-84.5 -170.5q0 -60 34 -98.5t119 -72.5t257 -77q267 -68 379.5 -163.5t115.5 -258.5q2 -198 -145 -314t-399 -116z" />
    <glyph glyph-name="sacute" unicode="&#x15b;" horiz-adv-x="1107" 
d="M420 1219l166 256h241l-227 -256h-180zM590 -31q-220 0 -362 104t-167 283l152 31q17 -126 118.5 -200t258.5 -74q136 0 212.5 47.5t76.5 132.5q0 83 -68 121t-266 71q-230 37 -325 106.5t-95 201.5q0 138 114 230.5t283 92.5q175 0 309 -96.5t160 -243.5l-149 -35
q-20 103 -110 168.5t-210 65.5q-101 0 -170 -52t-69 -128q0 -48 28.5 -77.5t98 -51.5t206.5 -45q224 -36 322 -110.5t98 -215.5q0 -149 -120.5 -237.5t-325.5 -88.5z" />
    <glyph glyph-name="Scircumflex" unicode="&#x15c;" horiz-adv-x="1275" 
d="M608 1710l-145 -184l-125 94l139 178h262l140 -178l-125 -94zM1210 399q2 -198 -145 -314t-399 -116q-261 0 -421.5 130.5t-197.5 373.5l172 25q59 -367 447 -367q178 0 274 69.5t96 198.5q0 102 -84 160t-313 115q-285 70 -396.5 157t-111.5 238q0 174 133.5 284.5
t345.5 110.5t368 -119t193 -309l-174 -30q-26 134 -133 216.5t-254 82.5q-136 0 -220.5 -65.5t-84.5 -170.5q0 -60 34 -98.5t119 -72.5t257 -77q267 -68 379.5 -163.5t115.5 -258.5z" />
    <glyph glyph-name="scircumflex" unicode="&#x15d;" horiz-adv-x="1107" 
d="M522 1362l-145 -184l-125 94l139 178h262l140 -178l-125 -94zM616 621q224 -36 322 -110.5t98 -215.5q0 -149 -120.5 -237.5t-325.5 -88.5q-220 0 -362 104t-167 283l152 31q17 -126 118.5 -200t258.5 -74q136 0 212.5 47.5t76.5 132.5q0 83 -68 121t-266 71
q-230 37 -325 106.5t-95 201.5q0 138 114 230.5t283 92.5q175 0 309 -96.5t160 -243.5l-149 -35q-20 103 -110 168.5t-210 65.5q-101 0 -170 -52t-69 -128q0 -48 28.5 -77.5t98 -51.5t206.5 -45z" />
    <glyph glyph-name="Scedilla" unicode="&#x15e;" horiz-adv-x="1275" 
d="M1210 399q1 -190 -135.5 -305.5t-372.5 -124.5l-59 -102q38 10 76 10q88 0 146.5 -50t58.5 -126q0 -90 -65 -147.5t-173 -57.5q-87 0 -153.5 38.5t-100.5 105.5l111 63q26 -47 59 -66.5t84 -19.5q52 0 80.5 23t26.5 61q0 35 -29 56.5t-78 21.5q-53 0 -108 -35l-101 55
l101 174q-223 22 -360 150.5t-171 349.5l172 25q59 -367 447 -367q178 0 274 69.5t96 198.5q0 102 -84 160t-313 115q-285 70 -396.5 157t-111.5 238q0 174 133.5 284.5t345.5 110.5t368 -119t193 -309l-174 -30q-26 134 -133 216.5t-254 82.5q-136 0 -220.5 -65.5
t-84.5 -170.5q0 -60 34 -98.5t119 -72.5t257 -77q267 -68 379.5 -163.5t115.5 -258.5z" />
    <glyph glyph-name="scedilla" unicode="&#x15f;" horiz-adv-x="1107" 
d="M1036 295q0 -141 -109.5 -229t-299.5 -97l-60 -102q38 10 76 10q88 0 146.5 -50t58.5 -126q0 -90 -65 -147.5t-173 -57.5q-87 0 -153.5 38.5t-100.5 105.5l111 63q26 -47 59 -66.5t84 -19.5q52 0 80.5 23t26.5 61q0 35 -29 56.5t-78 21.5q-53 0 -108 -35l-101 55l103 174
q-185 20 -303 122t-140 261l152 31q17 -126 118.5 -200t258.5 -74q136 0 212.5 47.5t76.5 132.5q0 83 -68 121t-266 71q-230 37 -325 106.5t-95 201.5q0 138 114 230.5t283 92.5q175 0 309 -96.5t160 -243.5l-149 -35q-20 103 -110 168.5t-210 65.5q-101 0 -170 -52
t-69 -128q0 -48 28.5 -77.5t98 -51.5t206.5 -45q224 -36 322 -110.5t98 -215.5z" />
    <glyph glyph-name="Scaron" unicode="&#x160;" horiz-adv-x="1275" 
d="M739 1567h-262l-139 178l125 94l145 -184l146 184l125 -94zM1210 399q2 -198 -145 -314t-399 -116q-261 0 -421.5 130.5t-197.5 373.5l172 25q59 -367 447 -367q178 0 274 69.5t96 198.5q0 102 -84 160t-313 115q-285 70 -396.5 157t-111.5 238q0 174 133.5 284.5
t345.5 110.5t368 -119t193 -309l-174 -30q-26 134 -133 216.5t-254 82.5q-136 0 -220.5 -65.5t-84.5 -170.5q0 -60 34 -98.5t119 -72.5t257 -77q267 -68 379.5 -163.5t115.5 -258.5z" />
    <glyph glyph-name="scaron" unicode="&#x161;" horiz-adv-x="1107" 
d="M653 1219h-262l-139 178l125 94l145 -184l146 184l125 -94zM616 621q224 -36 322 -110.5t98 -215.5q0 -149 -120.5 -237.5t-325.5 -88.5q-220 0 -362 104t-167 283l152 31q17 -126 118.5 -200t258.5 -74q136 0 212.5 47.5t76.5 132.5q0 83 -68 121t-266 71
q-230 37 -325 106.5t-95 201.5q0 138 114 230.5t283 92.5q175 0 309 -96.5t160 -243.5l-149 -35q-20 103 -110 168.5t-210 65.5q-101 0 -170 -52t-69 -128q0 -48 28.5 -77.5t98 -51.5t206.5 -45z" />
    <glyph glyph-name="uni0162" unicode="&#x162;" horiz-adv-x="1263" 
d="M721 0h-51l-60 -102q38 10 76 10q88 0 146.5 -50t58.5 -126q0 -90 -65 -147.5t-173 -57.5q-87 0 -153.5 38t-100.5 105l111 64q26 -47 59 -66.5t84 -19.5q52 0 80.5 23t26.5 61q0 35 -29 56.5t-78 21.5q-53 0 -108 -35l-101 55l101 172v1272h-508v160h1192v-160h-508
v-1274z" />
    <glyph glyph-name="uni0163" unicode="&#x163;" horiz-adv-x="845" 
d="M600 -123q88 0 146.5 -50t58.5 -126q0 -90 -65 -147.5t-173 -57.5q-87 0 -153.5 38.5t-100.5 105.5l111 63q26 -47 59 -66.5t84 -19.5q52 0 80.5 23t26.5 61q0 35 -29 56.5t-78 21.5q-53 0 -108 -35l-101 55l107 185q-87 26 -136.5 97t-49.5 171v684h-263v149h263v299
l163 50v-349h346v-149h-346v-674q0 -68 33 -104.5t96 -36.5q49 -1 95.5 9t115.5 36l47 -146q-133 -48 -245 -51l-60 -102q38 10 76 10z" />
    <glyph glyph-name="Tcaron" unicode="&#x164;" horiz-adv-x="1263" 
d="M762 1536h-262l-140 178l125 94l146 -184l145 184l125 -94zM37 1434h1192v-160h-508v-1274h-176v1274h-508v160z" />
    <glyph glyph-name="tcaron" unicode="&#x165;" horiz-adv-x="845" 
d="M582 1217v96q36 7 49.5 25t13.5 57h-76v200h215v-170q0 -92 -52.5 -146t-149.5 -62zM279 1384l163 50v-349h346v-149h-346v-674q0 -68 33 -104.5t96 -36.5q49 -1 95.5 9t115.5 36l47 -146q-141 -51 -264 -51q-130 0 -208 77.5t-78 205.5v684h-263v149h263v299z" />
    <glyph glyph-name="Tbar" unicode="&#x166;" horiz-adv-x="1284" 
d="M1229 1274h-508v-465h332v-145h-332v-664h-176v664h-332v145h332v465h-508v160h1192v-160z" />
    <glyph glyph-name="tbar" unicode="&#x167;" horiz-adv-x="845" 
d="M782 166l47 -146q-141 -51 -264 -51q-130 0 -208 77.5t-78 205.5v264h-263v137h263v283h-263v149h263v299l163 50v-349h346v-149h-346v-283h342v-137h-342v-254q0 -68 33 -104.5t96 -36.5q49 -1 95.5 9t115.5 36z" />
    <glyph glyph-name="Utilde" unicode="&#x168;" horiz-adv-x="1445" 
d="M862 1526q-56 0 -149.5 40t-124.5 40q-57 0 -72 -70h-121q6 101 56 158t135 57q56 0 149 -39t125 -39q57 0 72 68h119q-4 -100 -55.5 -157.5t-133.5 -57.5zM725 -31q-251 0 -406 142.5t-155 388.5v934h176v-924q0 -184 102.5 -281.5t282.5 -97.5q178 0 280.5 97
t102.5 282v924h174v-934q0 -246 -154 -388.5t-403 -142.5z" />
    <glyph glyph-name="utilde" unicode="&#x169;" horiz-adv-x="1204" 
d="M467 1257q-57 0 -72 -69h-121q6 101 56 158t135 57q56 0 149 -39t125 -39q57 0 72 68h119q-4 -100 -55.5 -157.5t-133.5 -57.5q-56 0 -149.5 39.5t-124.5 39.5zM887 1085h164v-1085h-162v121q-50 -70 -135.5 -111t-182.5 -41q-197 0 -312.5 128t-115.5 335v653h164v-628
q0 -162 69.5 -249t207.5 -87t219.5 87.5t81.5 240.5z" />
    <glyph glyph-name="Umacron" unicode="&#x16a;" horiz-adv-x="1445" 
d="M385 1536v139h676v-139h-676zM725 -31q-251 0 -406 142.5t-155 388.5v934h176v-924q0 -184 102.5 -281.5t282.5 -97.5q178 0 280.5 97t102.5 282v924h174v-934q0 -246 -154 -388.5t-403 -142.5z" />
    <glyph glyph-name="umacron" unicode="&#x16b;" horiz-adv-x="1204" 
d="M940 1327v-139h-676v139h676zM887 1085h164v-1085h-162v121q-50 -70 -135.5 -111t-182.5 -41q-197 0 -312.5 128t-115.5 335v653h164v-628q0 -162 69.5 -249t207.5 -87t219.5 87.5t81.5 240.5z" />
    <glyph glyph-name="Ubreve" unicode="&#x16c;" horiz-adv-x="1445" 
d="M723 1516q-118 0 -192 68.5t-74 184.5h116q9 -54 47 -84t103 -30q128 0 151 114h115q0 -116 -74 -184.5t-192 -68.5zM725 -31q-251 0 -406 142.5t-155 388.5v934h176v-924q0 -184 102.5 -281.5t282.5 -97.5q178 0 280.5 97t102.5 282v924h174v-934q0 -246 -154 -388.5
t-403 -142.5z" />
    <glyph glyph-name="ubreve" unicode="&#x16d;" horiz-adv-x="1204" 
d="M602 1167q-118 0 -192 69t-74 185h117q20 -114 149 -114t152 114h114q0 -116 -74 -185t-192 -69zM887 1085h164v-1085h-162v121q-50 -70 -135.5 -111t-182.5 -41q-197 0 -312.5 128t-115.5 335v653h164v-628q0 -162 69.5 -249t207.5 -87t219.5 87.5t81.5 240.5z" />
    <glyph glyph-name="Uring" unicode="&#x16e;" horiz-adv-x="1445" 
d="M723 1516q-107 0 -175.5 62t-68.5 159q0 95 68.5 157t175.5 62q106 0 174 -62t68 -157q0 -97 -68 -159t-174 -62zM723 1624q49 0 80 31.5t31 81.5q0 49 -30.5 79.5t-80.5 30.5q-51 0 -81 -30t-30 -80t30.5 -81.5t80.5 -31.5zM725 -31q-251 0 -406 142.5t-155 388.5v934
h176v-924q0 -184 102.5 -281.5t282.5 -97.5q178 0 280.5 97t102.5 282v924h174v-934q0 -246 -154 -388.5t-403 -142.5z" />
    <glyph glyph-name="uring" unicode="&#x16f;" horiz-adv-x="1204" 
d="M602 1167q-107 0 -175.5 62.5t-68.5 159.5q0 95 68.5 157t175.5 62q106 0 174 -62t68 -157q0 -97 -68 -159.5t-174 -62.5zM602 1499q-51 0 -80.5 -30t-29.5 -80t30 -81.5t80 -31.5q49 0 80 31.5t31 81.5q0 49 -30.5 79.5t-80.5 30.5zM887 1085h164v-1085h-162v121
q-50 -70 -135.5 -111t-182.5 -41q-197 0 -312.5 128t-115.5 335v653h164v-628q0 -162 69.5 -249t207.5 -87t219.5 87.5t81.5 240.5z" />
    <glyph glyph-name="Uhungarumlaut" unicode="&#x170;" horiz-adv-x="1445" 
d="M444 1536l158 244h229l-215 -244h-172zM776 1536l158 244h229l-215 -244h-172zM725 -31q-251 0 -406 142.5t-155 388.5v934h176v-924q0 -184 102.5 -281.5t282.5 -97.5q178 0 280.5 97t102.5 282v924h174v-934q0 -246 -154 -388.5t-403 -142.5z" />
    <glyph glyph-name="uhungarumlaut" unicode="&#x171;" horiz-adv-x="1204" 
d="M711 1432l-215 -244h-172l157 244h230zM827 1188h-172l158 244h229zM887 1085h164v-1085h-162v121q-50 -70 -135.5 -111t-182.5 -41q-197 0 -312.5 128t-115.5 335v653h164v-628q0 -162 69.5 -249t207.5 -87t219.5 87.5t81.5 240.5z" />
    <glyph glyph-name="Uogonek" unicode="&#x172;" horiz-adv-x="1445" 
d="M1108 1434h174v-934q0 -194 -97.5 -326t-266.5 -180q-117 -66 -166.5 -115t-49.5 -98q0 -68 91 -68q82 0 190 64l64 -127q-139 -74 -254 -74q-108 0 -173 48.5t-65 129.5q0 122 147 215q-241 8 -389.5 149.5t-148.5 381.5v934h176v-924q0 -184 102.5 -281.5t282.5 -97.5
q178 0 280.5 97t102.5 282v924z" />
    <glyph glyph-name="uogonek" unicode="&#x173;" horiz-adv-x="1204" 
d="M1100 -223l63 -127q-139 -74 -254 -74q-108 0 -172.5 48.5t-64.5 129.5q0 144 217 256v111q-50 -70 -135.5 -111t-182.5 -41q-197 0 -312.5 128t-115.5 335v653h164v-628q0 -162 69.5 -249t207.5 -87t219.5 87.5t81.5 240.5l2 636h164v-1085h-9q-122 -69 -172.5 -118.5
t-50.5 -100.5q0 -68 90 -68q83 0 191 64z" />
    <glyph glyph-name="Wcircumflex" unicode="&#x174;" horiz-adv-x="1638" 
d="M821 1679l-145 -184l-125 94l139 178h262l140 -178l-125 -94zM1374 1434h172l-217 -1434h-199l-309 872l-311 -872h-199l-219 1434h172l178 -1180l320 911h117l319 -911z" />
    <glyph glyph-name="wcircumflex" unicode="&#x175;" horiz-adv-x="1533" 
d="M756 1331l-146 -184l-125 94l140 178h262l139 -178l-125 -94zM1350 1085h153l-276 -1085h-191l-268 840l-270 -840h-189l-278 1085h153l228 -890l286 890h138l286 -890z" />
    <glyph glyph-name="Ycircumflex" unicode="&#x176;" horiz-adv-x="1261" 
d="M633 1679l-146 -184l-125 94l140 178h262l139 -178l-125 -94zM1038 1434h209l-528 -820v-614h-176v614l-527 820h207l408 -652z" />
    <glyph glyph-name="ycircumflex" unicode="&#x177;" horiz-adv-x="1101" 
d="M551 1331l-145 -184l-125 94l139 178h262l139 -178l-125 -94zM887 1085h184l-559 -1253q-37 -83 -96 -118.5t-158 -35.5q-44 0 -170 21l27 145q81 -16 143 -16q51 0 79 18t48 64l84 199l-438 976h186l334 -784z" />
    <glyph glyph-name="Ydieresis" unicode="&#x178;" horiz-adv-x="1261" 
d="M528 1745v-209h-209v209h209zM946 1745v-209h-209v209h209zM1038 1434h209l-528 -820v-614h-176v614l-527 820h207l408 -652z" />
    <glyph glyph-name="Zacute" unicode="&#x179;" horiz-adv-x="1247" 
d="M522 1536l166 256h242l-228 -256h-180zM78 0v147l887 1133h-856v154h1060v-146l-886 -1134h876v-154h-1081z" />
    <glyph glyph-name="zacute" unicode="&#x17a;" horiz-adv-x="1153" 
d="M475 1188l166 256h242l-228 -256h-180zM113 0v135l710 809h-694v141h897v-133l-711 -811h725v-141h-927z" />
    <glyph glyph-name="Zdotaccent" unicode="&#x17b;" horiz-adv-x="1247" 
d="M516 1536v215h217v-215h-217zM78 0v147l887 1133h-856v154h1060v-146l-886 -1134h876v-154h-1081z" />
    <glyph glyph-name="zdotaccent" unicode="&#x17c;" horiz-adv-x="1153" 
d="M469 1239v219h217v-219h-217zM113 0v135l710 809h-694v141h897v-133l-711 -811h725v-141h-927z" />
    <glyph glyph-name="Zcaron" unicode="&#x17d;" horiz-adv-x="1247" 
d="M756 1536h-262l-140 178l125 94l146 -184l145 184l125 -94zM1169 1434v-146l-886 -1134h876v-154h-1081v147l887 1133h-856v154h1060z" />
    <glyph glyph-name="zcaron" unicode="&#x17e;" horiz-adv-x="1153" 
d="M709 1188h-263l-139 178l125 94l146 -184l145 184l125 -94zM315 141h725v-141h-927v135l710 809h-694v141h897v-133z" />
    <glyph glyph-name="longs" unicode="&#x17f;" horiz-adv-x="835" 
d="M279 0v936h-263v149h263v121q0 122 74 196.5t198 74.5q134 0 285 -99l-74 -129q-68 42 -114 59t-93 17q-55 0 -84 -32.5t-29 -94.5v-1198h-163z" />
    <glyph glyph-name="uni018E" unicode="&#x18e;" horiz-adv-x="1161" 
d="M987 0h-895v162h719v500h-549v153h549v459h-719v160h895v-1434z" />
    <glyph glyph-name="uni018F" unicode="&#x18f;" horiz-adv-x="1345" 
d="M655 1464q185 0 321 -94t206.5 -262t70.5 -391q0 -222 -70.5 -390.5t-207 -263t-320.5 -94.5q-268 0 -415.5 190t-147.5 535v82h983q-12 247 -121.5 388t-298.5 141q-144 0 -242 -84.5t-141 -241.5l-166 39q52 205 196.5 325.5t352.5 120.5zM655 131q181 0 289 129
t129 356h-803q10 -233 110.5 -359t274.5 -126z" />
    <glyph glyph-name="florin" unicode="&#x192;" 
d="M930 1274q-77 0 -108.5 -31.5t-47.5 -112.5l-24 -137h385v-159h-412l-162 -928q-25 -135 -104 -201.5t-217 -66.5h-107v161h105q76 0 107.5 31t45.5 111l158 893h-330v159h354l33 172q50 269 320 269h211v-160h-207z" />
    <glyph glyph-name="uni01CD" unicode="&#x1cd;" horiz-adv-x="1423" 
d="M844 1536h-262l-140 178l125 94l146 -184l145 184l125 -94zM1214 0l-159 395h-684l-160 -395h-180l590 1434h184l588 -1434h-179zM432 547h561l-280 690z" />
    <glyph glyph-name="uni01CE" unicode="&#x1ce;" horiz-adv-x="1148" 
d="M676 1219h-262l-140 178l125 94l146 -184l145 184l125 -94zM1110 150l25 -140q-73 -16 -136 -16q-144 0 -182 135q-50 -70 -141 -109.5t-209 -39.5q-170 0 -272.5 84t-102.5 223q0 133 87 213t278 123q193 42 261 80t68 106q0 74 -66 119t-175 45q-123 0 -202.5 -67.5
t-96.5 -182.5l-154 25q25 166 149 267t304 101q183 0 291 -90t108 -244v-540q0 -48 20.5 -76.5t61.5 -28.5q24 0 84 13zM786 375v237q-15 -29 -78 -55.5t-219 -67.5q-131 -35 -185 -80t-54 -118q0 -80 57 -124t162 -44q139 0 228 71t89 181z" />
    <glyph glyph-name="uni01CF" unicode="&#x1cf;" horiz-adv-x="526" 
d="M412 1808l125 -94l-140 -178h-262l-139 178l125 94l145 -184zM174 0v1434h178v-1434h-178z" />
    <glyph glyph-name="uni01D0" unicode="&#x1d0;" horiz-adv-x="471" 
d="M381 1460l125 -94l-139 -178h-263l-139 178l125 94l146 -184zM154 0v1085h163v-1085h-163z" />
    <glyph glyph-name="uni01D1" unicode="&#x1d1;" horiz-adv-x="1380" 
d="M821 1567h-262l-139 178l125 94l145 -184l146 184l125 -94zM690 1464q140 0 253 -55t188.5 -153.5t116 -236t40.5 -302.5q0 -221 -69.5 -389t-206 -263.5t-322.5 -95.5t-322.5 95.5t-206 263.5t-69.5 389q0 165 40.5 302.5t116 236t188.5 153.5t253 55zM690 131
q202 0 312 158.5t110 427.5q0 271 -110 429.5t-312 158.5q-201 0 -311.5 -159t-110.5 -429q0 -269 110.5 -427.5t311.5 -158.5z" />
    <glyph glyph-name="uni01D2" unicode="&#x1d2;" horiz-adv-x="1187" 
d="M725 1219h-262l-139 178l125 94l145 -184l145 184l125 -94zM594 1116q226 0 364 -156.5t138 -416.5t-138 -417t-364 -157t-364 157t-138 417t138 416.5t364 156.5zM594 121q157 0 247.5 116t90.5 306q0 192 -90 308t-248 116q-156 0 -247 -116.5t-91 -307.5
q0 -190 91 -306t247 -116z" />
    <glyph glyph-name="uni01D3" unicode="&#x1d3;" horiz-adv-x="1445" 
d="M854 1536h-262l-139 178l125 94l145 -184l145 184l125 -94zM1108 1434h174v-934q0 -246 -154 -388.5t-403 -142.5q-251 0 -406 142.5t-155 388.5v934h176v-924q0 -184 102.5 -281.5t282.5 -97.5q178 0 280.5 97t102.5 282v924z" />
    <glyph glyph-name="uni01D4" unicode="&#x1d4;" horiz-adv-x="1204" 
d="M733 1188h-262l-139 178l125 94l145 -184l146 184l124 -94zM887 1085h164v-1085h-162v121q-50 -70 -135.5 -111t-182.5 -41q-197 0 -312.5 128t-115.5 335v653h164v-628q0 -162 69.5 -249t207.5 -87t219.5 87.5t81.5 240.5z" />
    <glyph glyph-name="uni01D5" unicode="&#x1d5;" horiz-adv-x="1445" 
d="M385 1815v139h676v-139h-676zM410 1536v209h208v-209h-208zM827 1536v209h209v-209h-209zM725 -31q-251 0 -406 142.5t-155 388.5v934h176v-924q0 -184 102.5 -281.5t282.5 -97.5q178 0 280.5 97t102.5 282v924h174v-934q0 -246 -154 -388.5t-403 -142.5z" />
    <glyph glyph-name="uni01D6" unicode="&#x1d6;" horiz-adv-x="1204" 
d="M940 1606v-140h-676v140h676zM498 1188h-209v209h209v-209zM915 1188h-208v209h208v-209zM887 1085h164v-1085h-162v121q-50 -70 -135.5 -111t-182.5 -41q-197 0 -312.5 128t-115.5 335v653h164v-628q0 -162 69.5 -249t207.5 -87t219.5 87.5t81.5 240.5z" />
    <glyph glyph-name="uni01D7" unicode="&#x1d7;" horiz-adv-x="1445" 
d="M621 1815l165 256h242l-227 -256h-180zM410 1536v209h208v-209h-208zM827 1536v209h209v-209h-209zM725 -31q-251 0 -406 142.5t-155 388.5v934h176v-924q0 -184 102.5 -281.5t282.5 -97.5q178 0 280.5 97t102.5 282v924h174v-934q0 -246 -154 -388.5t-403 -142.5z" />
    <glyph glyph-name="uni01D8" unicode="&#x1d8;" horiz-adv-x="1204" 
d="M907 1722l-227 -256h-180l166 256h241zM498 1397v-209h-209v209h209zM707 1188v209h208v-209h-208zM887 1085h164v-1085h-162v121q-50 -70 -135.5 -111t-182.5 -41q-197 0 -312.5 128t-115.5 335v653h164v-628q0 -162 69.5 -249t207.5 -87t219.5 87.5t81.5 240.5z" />
    <glyph glyph-name="uni01D9" unicode="&#x1d9;" horiz-adv-x="1445" 
d="M854 1815h-262l-139 178l125 94l145 -184l145 184l125 -94zM618 1745v-209h-208v209h208zM827 1536v209h209v-209h-209zM1108 1434h174v-934q0 -246 -154 -388.5t-403 -142.5q-251 0 -406 142.5t-155 388.5v934h176v-924q0 -184 102.5 -281.5t282.5 -97.5q178 0 280.5 97
t102.5 282v924z" />
    <glyph glyph-name="uni01DA" unicode="&#x1da;" horiz-adv-x="1204" 
d="M733 1466h-262l-139 179l125 94l145 -185l146 185l124 -94zM498 1397v-209h-209v209h209zM707 1188v209h208v-209h-208zM887 1085h164v-1085h-162v121q-50 -70 -135.5 -111t-182.5 -41q-197 0 -312.5 128t-115.5 335v653h164v-628q0 -162 69.5 -249t207.5 -87t219.5 87.5
t81.5 240.5z" />
    <glyph glyph-name="uni01DB" unicode="&#x1db;" horiz-adv-x="1445" 
d="M813 1815h-180l-227 256h241zM410 1536v209h208v-209h-208zM827 1536v209h209v-209h-209zM725 -31q-251 0 -406 142.5t-155 388.5v934h176v-924q0 -184 102.5 -281.5t282.5 -97.5q178 0 280.5 97t102.5 282v924h174v-934q0 -246 -154 -388.5t-403 -142.5z" />
    <glyph glyph-name="uni01DC" unicode="&#x1dc;" horiz-adv-x="1204" 
d="M692 1466h-180l-227 256h241zM498 1188h-209v209h209v-209zM915 1397v-209h-208v209h208zM887 1085h164v-1085h-162v121q-50 -70 -135.5 -111t-182.5 -41q-197 0 -312.5 128t-115.5 335v653h164v-628q0 -162 69.5 -249t207.5 -87t219.5 87.5t81.5 240.5z" />
    <glyph glyph-name="uni01DE" unicode="&#x1de;" horiz-adv-x="1423" 
d="M1051 1954v-139h-676v139h676zM608 1536h-209v209h209v-209zM1026 1536h-209v209h209v-209zM1214 0l-159 395h-684l-160 -395h-180l590 1434h184l588 -1434h-179zM432 547h561l-280 690z" />
    <glyph glyph-name="uni01DF" unicode="&#x1df;" horiz-adv-x="1148" 
d="M883 1636v-139h-676v139h676zM440 1219h-209v208h209v-208zM858 1219h-209v208h209v-208zM1110 150l25 -140q-73 -16 -136 -16q-144 0 -182 135q-50 -70 -141 -109.5t-209 -39.5q-170 0 -272.5 84t-102.5 223q0 133 87 213t278 123q193 42 261 80t68 106q0 74 -66 119
t-175 45q-123 0 -202.5 -67.5t-96.5 -182.5l-154 25q25 166 149 267t304 101q183 0 291 -90t108 -244v-540q0 -48 20.5 -76.5t61.5 -28.5q24 0 84 13zM786 375v237q-15 -29 -78 -55.5t-219 -67.5q-131 -35 -185 -80t-54 -118q0 -80 57 -124t162 -44q139 0 228 71t89 181z
" />
    <glyph glyph-name="Aringacute" unicode="&#x1fa;" horiz-adv-x="1423" 
d="M1214 0l-159 395h-684l-160 -395h-180l557 1354q-56 28 -87.5 78t-31.5 114q0 73 41 127t111 78l155 240h242l-213 -240q68 -23 108.5 -78.5t40.5 -126.5q0 -64 -30.5 -114t-85.5 -78l555 -1354h-179zM713 1657q-51 0 -81 -30.5t-30 -80.5t30 -81t81 -31q49 0 79.5 31
t30.5 81t-30.5 80.5t-79.5 30.5zM432 547h561l-280 690z" />
    <glyph glyph-name="aringacute" unicode="&#x1fb;" horiz-adv-x="1148" 
d="M1110 150l25 -140q-73 -16 -136 -16q-144 0 -182 135q-50 -70 -141 -109.5t-209 -39.5q-170 0 -272.5 84t-102.5 223q0 133 87 213t278 123q193 42 261 80t68 106q0 74 -66 119t-175 45q-123 0 -202.5 -67.5t-96.5 -182.5l-154 25q17 117 87 204t177 129q-55 61 -55 148
q0 73 41 127t111 78l155 239h242l-213 -239q68 -23 108.5 -78.5t40.5 -126.5q0 -88 -53 -144q101 -39 156 -117t55 -186v-540q0 -48 20.5 -76.5t61.5 -28.5q24 0 84 13zM434 1229q0 -50 30.5 -81.5t80.5 -31.5q49 0 79.5 31.5t30.5 81.5q0 49 -30.5 79.5t-79.5 30.5
q-51 0 -81 -30t-30 -80zM786 375v237q-15 -29 -78 -55.5t-219 -67.5q-131 -35 -185 -80t-54 -118q0 -80 57 -124t162 -44q139 0 228 71t89 181z" />
    <glyph glyph-name="AEacute" unicode="&#x1fc;" horiz-adv-x="1695" 
d="M1124 1792l-227 -256h-180l166 256h241zM1604 1282h-572v-455h504v-147h-504v-526h572v-154h-740v371h-516l-141 -371h-176l557 1434h1016v-152zM406 516h458v766h-166z" />
    <glyph glyph-name="aeacute" unicode="&#x1fd;" horiz-adv-x="1841" 
d="M1237 1475l-227 -256h-181l166 256h242zM936 473q15 -164 100 -258t221 -94q116 0 193 59t129 174l139 -75q-60 -144 -178.5 -227t-282.5 -83q-132 0 -233 58.5t-162 165.5q-48 -103 -150.5 -163.5t-238.5 -60.5q-172 0 -276.5 89.5t-104.5 230.5q0 135 87 214t282 122
q180 39 244.5 78t64.5 104q0 71 -62.5 115.5t-162.5 44.5q-121 0 -198.5 -64t-94.5 -180l-160 25q25 167 148.5 267.5t304.5 100.5q127 0 215.5 -48t128.5 -136q129 184 368 184q223 0 357.5 -156t134.5 -417v-70h-813zM1257 967q-136 0 -226.5 -97.5t-96.5 -257.5h647
q-7 164 -97 259.5t-227 95.5zM770 375v231q-18 -30 -79 -57.5t-193 -61.5q-138 -37 -190 -79t-52 -119q0 -75 57.5 -121.5t159.5 -46.5q126 0 211.5 74.5t85.5 179.5z" />
    <glyph glyph-name="Oslashacute" unicode="&#x1fe;" horiz-adv-x="1380" 
d="M995 1823l-227 -256h-180l166 256h241zM1096 1296q94 -98 143 -247t49 -332q0 -221 -69.5 -389t-206 -263.5t-322.5 -95.5q-171 0 -301 82l-84 -147l-117 61l97 170q-94 100 -143.5 249t-49.5 333q0 165 40.5 302.5t116 236t188.5 153.5t253 55q171 0 301 -82l84 148
l117 -64zM260 717q0 -275 109 -432l546 962q-96 68 -225 68q-206 0 -318 -161.5t-112 -436.5zM690 119q206 0 318 161.5t112 436.5q0 276 -108 432l-547 -963q95 -67 225 -67z" />
    <glyph glyph-name="oslashacute" unicode="&#x1ff;" horiz-adv-x="1187" 
d="M940 1475l-227 -256h-181l166 256h242zM971 944q125 -153 125 -401q0 -260 -138 -417t-364 -157q-163 0 -285 86l-94 -127l-102 68l106 143q-127 152 -127 404q0 260 138 416.5t364 156.5q167 0 287 -88l96 129l98 -74zM252 543q0 -164 65 -273l476 637q-81 66 -199 66
q-159 0 -250.5 -118.5t-91.5 -311.5zM594 115q159 0 251.5 117.5t92.5 310.5q0 158 -64 270l-475 -637q83 -61 195 -61z" />
    <glyph glyph-name="Scommaaccent" unicode="&#x218;" horiz-adv-x="1275" 
d="M666 -31q-261 0 -421.5 130.5t-197.5 373.5l172 25q59 -367 447 -367q178 0 274 69.5t96 198.5q0 102 -84 160t-313 115q-285 70 -396.5 157t-111.5 238q0 174 133.5 284.5t345.5 110.5t368 -119t193 -309l-174 -30q-26 134 -133 216.5t-254 82.5q-136 0 -220.5 -65.5
t-84.5 -170.5q0 -60 34 -98.5t119 -72.5t257 -77q267 -68 379.5 -163.5t115.5 -258.5q2 -198 -145 -314t-399 -116zM569 -512v96q36 7 50 25t14 57h-76v201h215v-170q0 -92 -53 -146.5t-150 -62.5z" />
    <glyph glyph-name="scommaaccent" unicode="&#x219;" horiz-adv-x="1107" 
d="M590 -31q-220 0 -362 104t-167 283l152 31q17 -126 118.5 -200t258.5 -74q136 0 212.5 47.5t76.5 132.5q0 83 -68 121t-266 71q-230 37 -325 106.5t-95 201.5q0 138 114 230.5t283 92.5q175 0 309 -96.5t160 -243.5l-149 -35q-20 103 -110 168.5t-210 65.5
q-101 0 -170 -52t-69 -128q0 -48 28.5 -77.5t98 -51.5t206.5 -45q224 -36 322 -110.5t98 -215.5q0 -149 -120.5 -237.5t-325.5 -88.5zM494 -512v96q36 7 49.5 25t13.5 57h-76v201h215v-170q0 -92 -52.5 -147t-149.5 -62z" />
    <glyph glyph-name="uni021A" unicode="&#x21a;" horiz-adv-x="1263" 
d="M545 0v1274h-508v160h1192v-160h-508v-1274h-176zM537 -481v96q36 7 49.5 25t13.5 57h-76v201h215v-170q0 -92 -52.5 -147t-149.5 -62z" />
    <glyph glyph-name="uni021B" unicode="&#x21b;" horiz-adv-x="845" 
d="M279 1384l163 50v-349h346v-149h-346v-674q0 -68 33 -104.5t96 -36.5q49 -1 95.5 9t115.5 36l47 -146q-141 -51 -264 -51q-130 0 -208 77.5t-78 205.5v684h-263v149h263v299zM451 -512v96q36 7 49.5 25t13.5 57h-76v201h215v-170q0 -92 -52.5 -147t-149.5 -62z" />
    <glyph glyph-name="uni0228" unicode="&#x228;" horiz-adv-x="1161" 
d="M1069 1274h-719v-459h549v-153h-549v-500h719v-162h-405l-60 -102q38 10 76 10q88 0 146.5 -50t58.5 -126q0 -90 -65 -147.5t-173 -57.5q-87 0 -153.5 38t-100.5 105l111 64q26 -47 59 -66.5t84 -19.5q52 0 80.5 23t26.5 61q0 35 -29 56.5t-78 21.5q-53 0 -108 -35
l-101 55l99 170h-363v1434h895v-160z" />
    <glyph glyph-name="uni0229" unicode="&#x229;" horiz-adv-x="1165" 
d="M252 475q17 -167 105 -263.5t225 -96.5q225 0 321 237l135 -69q-55 -138 -163 -220.5t-257 -91.5l-59 -104q38 10 76 10q88 0 146.5 -50t58.5 -126q0 -90 -65 -147.5t-173 -57.5q-87 0 -153.5 38.5t-100.5 105.5l111 63q26 -47 59 -66.5t84 -19.5q52 0 80.5 23t26.5 61
q0 35 -29 56.5t-78 21.5q-53 0 -108 -35l-101 55l103 176q-186 31 -295 183.5t-109 384.5q0 259 134.5 416t355.5 157t356 -156.5t135 -416.5v-68h-821zM582 973q-138 0 -230.5 -99t-99.5 -264h657q-14 166 -102 264.5t-225 98.5z" />
    <glyph glyph-name="uni0237" unicode="&#x237;" horiz-adv-x="751" 
d="M598 1085v-1077q0 -183 -100.5 -290t-268.5 -107q-127 0 -260 51l51 141q107 -43 197 -43q105 0 161 64.5t56 189.5v922h-381v149h545z" />
    <glyph glyph-name="uni0258" unicode="&#x258;" horiz-adv-x="1165" 
d="M584 1116q221 0 355 -157t134 -416t-133.5 -416.5t-355.5 -157.5q-162 0 -280.5 84t-176.5 230l135 69q96 -237 322 -237q137 0 224.5 96.5t104.5 263.5h-821v68q0 260 135.5 416.5t356.5 156.5zM584 973q-138 0 -226 -98.5t-102 -264.5h657q-7 165 -99 264t-230 99z" />
    <glyph glyph-name="uni0259" unicode="&#x259;" horiz-adv-x="1165" 
d="M584 1116q222 0 355.5 -157t133.5 -416q0 -260 -134 -417t-355 -157t-356.5 157t-135.5 417v67h821q-17 167 -104.5 264t-224.5 97q-225 0 -322 -238l-135 70q58 146 176.5 229.5t280.5 83.5zM584 113q138 0 230 98.5t99 263.5h-657q14 -166 102 -264t226 -98z" />
    <glyph glyph-name="circumflex" unicode="&#x2c6;" horiz-adv-x="806" 
d="M905 1241l-125 -94l-145 184l-146 -184l-124 94l139 178h262z" />
    <glyph glyph-name="caron" unicode="&#x2c7;" horiz-adv-x="806" 
d="M549 1460l125 -94l-139 -178h-263l-139 178l125 94l145 -184z" />
    <glyph glyph-name="breve" unicode="&#x2d8;" horiz-adv-x="819" 
d="M399 1167q-118 0 -192 69t-74 185h117q20 -114 149 -114t152 114h115q0 -116 -74.5 -185t-192.5 -69z" />
    <glyph glyph-name="dotaccent" unicode="&#x2d9;" horiz-adv-x="483" 
d="M133 1188v215h217v-215h-217z" />
    <glyph glyph-name="ring" unicode="&#x2da;" horiz-adv-x="751" 
d="M377 977q-107 0 -175.5 62t-68.5 159q0 95 68.5 157t175.5 62q106 0 173.5 -62t67.5 -157q0 -97 -67.5 -159t-173.5 -62zM377 1085q49 0 79.5 31.5t30.5 81.5t-30.5 80.5t-79.5 30.5q-51 0 -81 -30.5t-30 -80.5t30.5 -81.5t80.5 -31.5z" />
    <glyph glyph-name="ogonek" unicode="&#x2db;" horiz-adv-x="757" 
d="M371 -424q-108 0 -173 48.5t-65 129.5q0 84 69 153.5t212 131.5l90 -39q-122 -69 -172.5 -118.5t-50.5 -100.5q0 -68 90 -68q82 0 190 64l64 -127q-139 -74 -254 -74z" />
    <glyph glyph-name="tilde" unicode="&#x2dc;" horiz-adv-x="921" 
d="M600 1178q-56 0 -149.5 39.5t-124.5 39.5q-57 0 -72 -69h-121q6 101 56 158t135 57q56 0 149 -39t125 -39q57 0 72 68h118q-4 -101 -55 -158t-133 -57z" />
    <glyph glyph-name="hungarumlaut" unicode="&#x2dd;" horiz-adv-x="1021" 
d="M133 1188l158 244h229l-215 -244h-172zM465 1188l158 244h229l-215 -244h-172z" />
    <glyph glyph-name="gravecomb" unicode="&#x300;" horiz-adv-x="0" 
d="M-133 1188h-180l-228 256h242z" />
    <glyph glyph-name="acutecomb" unicode="&#x301;" horiz-adv-x="0" 
d="M-541 1188l166 256h242l-227 -256h-181z" />
    <glyph glyph-name="uni0302" unicode="&#x302;" horiz-adv-x="0" 
d="M-133 1241l-125 -94l-145 184l-146 -184l-125 94l139 178h263z" />
    <glyph glyph-name="tildecomb" unicode="&#x303;" horiz-adv-x="0" 
d="M-322 1178q-56 0 -149.5 39.5t-124.5 39.5q-57 0 -72 -69h-120q6 102 56 158.5t134 56.5q56 0 149 -39t125 -39q57 0 72 68h119q-4 -100 -55.5 -157.5t-133.5 -57.5z" />
    <glyph glyph-name="uni0304" unicode="&#x304;" horiz-adv-x="0" 
d="M-809 1188v139h676v-139h-676z" />
    <glyph glyph-name="uni0306" unicode="&#x306;" horiz-adv-x="0" 
d="M-399 1167q-118 0 -192.5 69t-74.5 185h117q9 -54 47 -84t103 -30q128 0 151 114h115q0 -116 -74 -185t-192 -69z" />
    <glyph glyph-name="uni0307" unicode="&#x307;" horiz-adv-x="0" 
d="M-350 1188v215h217v-215h-217z" />
    <glyph glyph-name="uni0308" unicode="&#x308;" horiz-adv-x="0" 
d="M-760 1188v209h209v-209h-209zM-342 1188v209h209v-209h-209z" />
    <glyph glyph-name="uni030A" unicode="&#x30a;" horiz-adv-x="0" 
d="M-375 977q-107 0 -175 62t-68 159q0 96 68 157.5t175 61.5q106 0 174 -62t68 -157q0 -97 -68 -159t-174 -62zM-375 1085q49 0 80 31.5t31 81.5t-31 80.5t-80 30.5q-51 0 -80.5 -30.5t-29.5 -80.5t30 -81.5t80 -31.5z" />
    <glyph glyph-name="uni030B" unicode="&#x30b;" horiz-adv-x="0" 
d="M-852 1188l158 244h229l-215 -244h-172zM-520 1188l158 244h229l-215 -244h-172z" />
    <glyph glyph-name="uni030C" unicode="&#x30c;" horiz-adv-x="0" 
d="M-258 1460l125 -94l-139 -178h-263l-139 178l125 94l146 -184z" />
    <glyph glyph-name="dotbelowcomb" unicode="&#x323;" horiz-adv-x="0" 
d="M-350 -317v215h217v-215h-217z" />
    <glyph glyph-name="uni0326" unicode="&#x326;" horiz-adv-x="0" 
d="M-336 -481v96q36 7 50 25t14 57h-76v201h215v-170q0 -92 -53 -146.5t-150 -62.5z" />
    <glyph glyph-name="uni0327" unicode="&#x327;" horiz-adv-x="0" 
d="M-338 -92q88 0 146.5 -50t58.5 -126q0 -90 -65 -147.5t-173 -57.5q-87 0 -153.5 38t-100.5 105l111 64q26 -47 59 -66.5t84 -19.5q52 0 80.5 23t26.5 61q0 35 -29 56.5t-78 21.5q-53 0 -108 -35l-101 55l117 201h127l-78 -133q38 10 76 10z" />
    <glyph glyph-name="uni0328" unicode="&#x328;" horiz-adv-x="0" 
d="M-387 -424q-108 0 -173 48.5t-65 129.5q0 84 69 153.5t212 131.5l90 -39q-122 -69 -172.5 -118.5t-50.5 -100.5q0 -68 90 -68q82 0 190 64l64 -127q-139 -74 -254 -74z" />
    <glyph glyph-name="uni0337" unicode="&#x337;" horiz-adv-x="0" 
d="M-993 -70l-103 68l865 1161l98 -74z" />
    <glyph glyph-name="uni0338" unicode="&#x338;" horiz-adv-x="0" 
d="M-1020 -96l-117 61l887 1565l117 -64z" />
    <glyph glyph-name="uni0394" unicode="&#x394;" horiz-adv-x="1423" 
d="M805 1434l588 -1434h-1362l590 1434h184zM272 154h881l-440 1083z" />
    <glyph glyph-name="uni03A9" unicode="&#x3a9;" horiz-adv-x="1228" 
d="M1137 727q0 -427 -181 -565h181v-162h-435v141q129 35 195 181t66 395q0 289 -88.5 438.5t-260.5 149.5q-170 0 -259 -150t-89 -438q0 -249 66.5 -395t195.5 -181v-141h-436v162h182q-182 137 -182 565q0 352 136 544.5t386 192.5t386.5 -192.5t136.5 -544.5z" />
    <glyph glyph-name="uni03BC" unicode="&#x3bc;" 
d="M952 1085h164v-1085h-164v117q-54 -68 -141.5 -108t-189.5 -40q-200 0 -304 119v-549h-163v1546h163v-628q0 -166 77.5 -251t226.5 -85q152 0 241.5 88.5t89.5 239.5v636z" />
    <glyph glyph-name="pi" unicode="&#x3c0;" horiz-adv-x="1116" 
d="M1081 936h-192v-614q0 -90 45 -130t147 -40v-152q-178 0 -267 76.5t-89 222.5v637h-311v-936h-164v936h-213v149h1044v-149z" />
    <glyph glyph-name="uni0E3F" unicode="&#xe3f;" horiz-adv-x="1402" 
d="M1022 766q120 -43 189 -136t69 -218q0 -182 -133 -297t-344 -115h-70v-252h-174v252h-323v1434h323v241h174v-241h62q180 0 298.5 -105t118.5 -266q0 -101 -50 -178t-140 -119zM410 1274v-440h372q118 0 187 61.5t69 167.5q0 96 -69.5 153.5t-186.5 57.5h-372zM795 162
q145 0 228 68t83 188q0 118 -84 188t-227 70h-385v-514h385z" />
    <glyph glyph-name="uni1E04" unicode="&#x1e04;" horiz-adv-x="1300" 
d="M981 766q120 -43 189 -136t69 -218q0 -182 -133 -297t-344 -115h-588v1434h580q180 0 298.5 -105t118.5 -266q0 -101 -50 -178t-140 -119zM348 1274v-440h393q118 0 187 61.5t69 167.5q0 96 -69.5 153.5t-186.5 57.5h-393zM754 162q145 0 228 68t83 188q0 118 -84 188
t-227 70h-406v-514h406zM530 -317v215h218v-215h-218z" />
    <glyph glyph-name="uni1E05" unicode="&#x1e05;" horiz-adv-x="1228" 
d="M645 1116q220 0 356 -157.5t136 -415.5q0 -256 -135.5 -415t-356.5 -159q-99 0 -186 36.5t-142 98.5v-104h-163v1434h163v-455q52 63 138.5 100t189.5 37zM637 121q155 0 245.5 114.5t90.5 307.5q0 195 -91.5 309.5t-246.5 114.5q-141 0 -229.5 -88t-88.5 -226v-211
q0 -145 87.5 -233t232.5 -88zM537 -348v215h217v-215h-217z" />
    <glyph glyph-name="uni1E0C" unicode="&#x1e0c;" horiz-adv-x="1376" 
d="M174 1434h422q319 0 503.5 -184t184.5 -533q0 -350 -184 -533.5t-504 -183.5h-422v1434zM582 162q252 0 390 137t138 418q0 282 -138 419.5t-390 137.5h-234v-1112h234zM610 -317v215h217v-215h-217z" />
    <glyph glyph-name="uni1E0D" unicode="&#x1e0d;" horiz-adv-x="1228" 
d="M911 1434h164v-1434h-164v104q-55 -62 -141.5 -98.5t-185.5 -36.5q-221 0 -356.5 159t-135.5 415q0 258 136 415.5t356 157.5q103 0 189 -37t138 -100v455zM592 121q145 0 232 88t87 233v211q0 138 -88 226t-229 88q-155 0 -246.5 -114.5t-91.5 -309.5
q0 -193 90.5 -307.5t245.5 -114.5zM477 -348v215h217v-215h-217z" />
    <glyph glyph-name="uni1E24" unicode="&#x1e24;" horiz-adv-x="1396" 
d="M174 1434h176v-615h697v615h176v-1434h-176v659h-697v-659h-176v1434zM590 -317v215h217v-215h-217z" />
    <glyph glyph-name="uni1E25" unicode="&#x1e25;" horiz-adv-x="1249" 
d="M670 1116q195 0 315.5 -120t120.5 -320v-676h-164v649q0 155 -75.5 236.5t-217.5 81.5q-150 0 -240 -87t-90 -233l-2 -647h-163v1434h163v-467q55 69 148.5 109t204.5 40zM522 -317v215h217v-215h-217z" />
    <glyph glyph-name="uni1E36" unicode="&#x1e36;" horiz-adv-x="1169" 
d="M174 1434h176v-1272h762v-162h-938v1434zM575 -317v215h218v-215h-218z" />
    <glyph glyph-name="uni1E37" unicode="&#x1e37;" horiz-adv-x="471" 
d="M154 0v1434h163v-1434h-163zM127 -317v215h217v-215h-217z" />
    <glyph glyph-name="uni1E44" unicode="&#x1e44;" horiz-adv-x="1378" 
d="M797 1751v-215h-217v215h217zM1030 1434h174v-1434h-178l-678 1141v-1141h-174v1434h178l678 -1141v1141z" />
    <glyph glyph-name="uni1E45" unicode="&#x1e45;" horiz-adv-x="1249" 
d="M756 1434v-215h-217v215h217zM670 1116q195 0 315.5 -120t120.5 -320v-676h-164v649q0 155 -75.5 236.5t-217.5 81.5q-150 0 -240 -87t-90 -233l-2 -647h-163v1085h163v-118q55 69 148.5 109t204.5 40z" />
    <glyph glyph-name="uni1E46" unicode="&#x1e46;" horiz-adv-x="1378" 
d="M1030 1434h174v-1434h-178l-678 1141v-1141h-174v1434h178l678 -1141v1141zM580 -317v215h217v-215h-217z" />
    <glyph glyph-name="uni1E47" unicode="&#x1e47;" horiz-adv-x="1249" 
d="M670 1116q195 0 315.5 -120t120.5 -320v-676h-164v649q0 155 -75.5 236.5t-217.5 81.5q-150 0 -240 -87t-90 -233l-2 -647h-163v1085h163v-118q55 69 148.5 109t204.5 40zM502 -317v215h217v-215h-217z" />
    <glyph glyph-name="uni1E4C" unicode="&#x1e4c;" horiz-adv-x="1380" 
d="M584 1843l166 256h241l-227 -256h-180zM829 1556q-56 0 -149.5 40t-124.5 40q-57 0 -72 -69h-121q6 101 56 158t135 57q56 0 149 -39t125 -39q57 0 72 68h119q-4 -101 -55.5 -158.5t-133.5 -57.5zM690 -31q-186 0 -322.5 95.5t-206 263.5t-69.5 389q0 165 40.5 302.5
t116 236t188.5 153.5t253 55t253 -55t188.5 -153.5t116 -236t40.5 -302.5q0 -221 -69.5 -389t-206 -263.5t-322.5 -95.5zM690 131q202 0 312 158.5t110 427.5q0 271 -110 429.5t-312 158.5q-201 0 -311.5 -159t-110.5 -429q0 -269 110.5 -427.5t311.5 -158.5z" />
    <glyph glyph-name="uni1E4D" unicode="&#x1e4d;" horiz-adv-x="1187" 
d="M487 1495l166 256h242l-227 -256h-181zM733 1208q-56 0 -149.5 40t-124.5 40q-57 0 -72 -69h-121q6 101 56 158t135 57q56 0 149 -39t125 -39q57 0 72 67h119q-4 -100 -55.5 -157.5t-133.5 -57.5zM594 -31q-226 0 -364 157t-138 417t138 416.5t364 156.5t364 -156.5
t138 -416.5t-138 -417t-364 -157zM594 121q157 0 247.5 116t90.5 306q0 192 -90 308t-248 116q-156 0 -247 -116.5t-91 -307.5q0 -190 91 -306t247 -116z" />
    <glyph glyph-name="uni1E62" unicode="&#x1e62;" horiz-adv-x="1275" 
d="M666 -31q-261 0 -421.5 130.5t-197.5 373.5l172 25q59 -367 447 -367q178 0 274 69.5t96 198.5q0 102 -84 160t-313 115q-285 70 -396.5 157t-111.5 238q0 174 133.5 284.5t345.5 110.5t368 -119t193 -309l-174 -30q-26 134 -133 216.5t-254 82.5q-136 0 -220.5 -65.5
t-84.5 -170.5q0 -60 34 -98.5t119 -72.5t257 -77q267 -68 379.5 -163.5t115.5 -258.5q2 -198 -145 -314t-399 -116zM557 -348v215h217v-215h-217z" />
    <glyph glyph-name="uni1E63" unicode="&#x1e63;" horiz-adv-x="1107" 
d="M590 -31q-220 0 -362 104t-167 283l152 31q17 -126 118.5 -200t258.5 -74q136 0 212.5 47.5t76.5 132.5q0 83 -68 121t-266 71q-230 37 -325 106.5t-95 201.5q0 138 114 230.5t283 92.5q175 0 309 -96.5t160 -243.5l-149 -35q-20 103 -110 168.5t-210 65.5
q-101 0 -170 -52t-69 -128q0 -48 28.5 -77.5t98 -51.5t206.5 -45q224 -36 322 -110.5t98 -215.5q0 -149 -120.5 -237.5t-325.5 -88.5zM481 -348v215h217v-215h-217z" />
    <glyph glyph-name="uni1E6C" unicode="&#x1e6c;" horiz-adv-x="1263" 
d="M545 0v1274h-508v160h1192v-160h-508v-1274h-176zM524 -317v215h217v-215h-217z" />
    <glyph glyph-name="uni1E6D" unicode="&#x1e6d;" horiz-adv-x="845" 
d="M279 1384l163 50v-349h346v-149h-346v-674q0 -68 33 -104.5t96 -36.5q49 -1 95.5 9t115.5 36l47 -146q-141 -51 -264 -51q-130 0 -208 77.5t-78 205.5v684h-263v149h263v299zM438 -348v215h217v-215h-217z" />
    <glyph glyph-name="Wgrave" unicode="&#x1e80;" horiz-adv-x="1638" 
d="M911 1536h-180l-227 256h241zM1374 1434h172l-217 -1434h-199l-309 872l-311 -872h-199l-219 1434h172l178 -1180l320 911h117l319 -911z" />
    <glyph glyph-name="wgrave" unicode="&#x1e81;" horiz-adv-x="1533" 
d="M846 1188h-180l-228 256h242zM1350 1085h153l-276 -1085h-191l-268 840l-270 -840h-189l-278 1085h153l228 -890l286 890h138l286 -890z" />
    <glyph glyph-name="Wacute" unicode="&#x1e82;" horiz-adv-x="1638" 
d="M1126 1792l-227 -256h-180l166 256h241zM1374 1434h172l-217 -1434h-199l-309 872l-311 -872h-199l-219 1434h172l178 -1180l320 911h117l319 -911z" />
    <glyph glyph-name="wacute" unicode="&#x1e83;" horiz-adv-x="1533" 
d="M1061 1444l-227 -256h-181l166 256h242zM1350 1085h153l-276 -1085h-191l-268 840l-270 -840h-189l-278 1085h153l228 -890l286 890h138l286 -890z" />
    <glyph glyph-name="Wdieresis" unicode="&#x1e84;" horiz-adv-x="1638" 
d="M717 1745v-209h-209v209h209zM1135 1745v-209h-209v209h209zM1374 1434h172l-217 -1434h-199l-309 872l-311 -872h-199l-219 1434h172l178 -1180l320 911h117l319 -911z" />
    <glyph glyph-name="wdieresis" unicode="&#x1e85;" horiz-adv-x="1533" 
d="M651 1397v-209h-209v209h209zM1069 1397v-209h-209v209h209zM1350 1085h153l-276 -1085h-191l-268 840l-270 -840h-189l-278 1085h153l228 -890l286 890h138l286 -890z" />
    <glyph glyph-name="uni1E92" unicode="&#x1e92;" horiz-adv-x="1247" 
d="M78 0v147l887 1133h-856v154h1060v-146l-886 -1134h876v-154h-1081zM516 -317v215h217v-215h-217z" />
    <glyph glyph-name="uni1E93" unicode="&#x1e93;" horiz-adv-x="1153" 
d="M113 0v135l710 809h-694v141h897v-133l-711 -811h725v-141h-927zM469 -317v215h217v-215h-217z" />
    <glyph glyph-name="uni1EA0" unicode="&#x1ea0;" horiz-adv-x="1423" 
d="M1393 0h-179l-159 395h-684l-160 -395h-180l590 1434h184zM432 547h561l-280 690zM602 -317v215h217v-215h-217z" />
    <glyph glyph-name="uni1EA1" unicode="&#x1ea1;" horiz-adv-x="1148" 
d="M1110 150l25 -140q-73 -16 -136 -16q-144 0 -182 135q-50 -70 -141 -109.5t-209 -39.5q-170 0 -272.5 84t-102.5 223q0 133 87 213t278 123q193 42 261 80t68 106q0 74 -66 119t-175 45q-123 0 -202.5 -67.5t-96.5 -182.5l-154 25q25 166 149 267t304 101q183 0 291 -90
t108 -244v-540q0 -48 20.5 -76.5t61.5 -28.5q24 0 84 13zM786 375v237q-15 -29 -78 -55.5t-219 -67.5q-131 -35 -185 -80t-54 -118q0 -80 57 -124t162 -44q139 0 228 71t89 181zM461 -348v215h217v-215h-217z" />
    <glyph glyph-name="uni1EAC" unicode="&#x1eac;" horiz-adv-x="1423" 
d="M713 1679l-146 -184l-125 94l140 178h262l139 -178l-125 -94zM1393 0h-179l-159 395h-684l-160 -395h-180l590 1434h184zM432 547h561l-280 690zM606 -317v215h217v-215h-217z" />
    <glyph glyph-name="uni1EAD" unicode="&#x1ead;" horiz-adv-x="1148" 
d="M545 1362l-146 -184l-125 94l140 178h262l139 -178l-125 -94zM1110 150l25 -140q-73 -16 -136 -16q-144 0 -182 135q-50 -70 -141 -109.5t-209 -39.5q-170 0 -272.5 84t-102.5 223q0 133 87 213t278 123q193 42 261 80t68 106q0 74 -66 119t-175 45q-123 0 -202.5 -67.5
t-96.5 -182.5l-154 25q25 166 149 267t304 101q183 0 291 -90t108 -244v-540q0 -48 20.5 -76.5t61.5 -28.5q24 0 84 13zM786 375v237q-15 -29 -78 -55.5t-219 -67.5q-131 -35 -185 -80t-54 -118q0 -80 57 -124t162 -44q139 0 228 71t89 181zM461 -348v215h217v-215h-217z
" />
    <glyph glyph-name="uni1EB8" unicode="&#x1eb8;" horiz-adv-x="1161" 
d="M174 0v1434h895v-160h-719v-459h549v-153h-549v-500h719v-162h-895zM518 -317v215h217v-215h-217z" />
    <glyph glyph-name="uni1EB9" unicode="&#x1eb9;" horiz-adv-x="1165" 
d="M252 475q17 -167 105 -263.5t225 -96.5q225 0 321 237l135 -69q-59 -146 -176.5 -230t-279.5 -84q-222 0 -356 157.5t-134 416.5t134.5 416t355.5 157t356 -156.5t135 -416.5v-68h-821zM582 973q-138 0 -230.5 -99t-99.5 -264h657q-14 166 -102 264.5t-225 98.5z
M473 -348v215h217v-215h-217z" />
    <glyph glyph-name="uni1EBC" unicode="&#x1ebc;" horiz-adv-x="1161" 
d="M766 1526q-56 0 -149.5 40t-124.5 40q-57 0 -72 -70h-121q6 102 56 158.5t134 56.5q56 0 149.5 -39t125.5 -39q57 0 72 68h118q-4 -101 -55 -158t-133 -57zM174 0v1434h895v-160h-719v-459h549v-153h-549v-500h719v-162h-895z" />
    <glyph glyph-name="uni1EBD" unicode="&#x1ebd;" horiz-adv-x="1165" 
d="M446 1288q-56 0 -71 -69h-121q6 102 56 158.5t134 56.5q56 0 149.5 -39t125.5 -39q57 0 72 67h118q-4 -101 -55 -158t-133 -57q-56 0 -150 40t-125 40zM252 475q17 -167 105 -263.5t225 -96.5q225 0 321 237l135 -69q-59 -146 -176.5 -230t-279.5 -84q-222 0 -356 157.5
t-134 416.5t134.5 416t355.5 157t356 -156.5t135 -416.5v-68h-821zM582 973q-138 0 -230.5 -99t-99.5 -264h657q-14 166 -102 264.5t-225 98.5z" />
    <glyph glyph-name="uni1EC6" unicode="&#x1ec6;" horiz-adv-x="1161" 
d="M627 1679l-146 -184l-125 94l140 178h262l139 -178l-125 -94zM1069 1274h-719v-459h549v-153h-549v-500h719v-162h-895v1434h895v-160zM498 -317v215h217v-215h-217z" />
    <glyph glyph-name="uni1EC7" unicode="&#x1ec7;" horiz-adv-x="1165" 
d="M582 1362l-146 -184l-125 94l140 178h262l139 -178l-125 -94zM252 475q17 -167 105 -263.5t225 -96.5q225 0 321 237l135 -69q-59 -146 -176.5 -230t-279.5 -84q-222 0 -356 157.5t-134 416.5t134.5 416t355.5 157t356 -156.5t135 -416.5v-68h-821zM582 973
q-138 0 -230.5 -99t-99.5 -264h657q-14 166 -102 264.5t-225 98.5zM473 -348v215h217v-215h-217z" />
    <glyph glyph-name="uni1ECA" unicode="&#x1eca;" horiz-adv-x="526" 
d="M174 0v1434h178v-1434h-178zM158 -317v215h217v-215h-217z" />
    <glyph glyph-name="uni1ECB" unicode="&#x1ecb;" horiz-adv-x="471" 
d="M127 1239v219h217v-219h-217zM154 0v1085h163v-1085h-163zM127 -317v215h217v-215h-217z" />
    <glyph glyph-name="uni1ECC" unicode="&#x1ecc;" horiz-adv-x="1380" 
d="M690 -31q-186 0 -322.5 95.5t-206 263.5t-69.5 389q0 165 40.5 302.5t116 236t188.5 153.5t253 55t253 -55t188.5 -153.5t116 -236t40.5 -302.5q0 -221 -69.5 -389t-206 -263.5t-322.5 -95.5zM690 131q202 0 312 158.5t110 427.5q0 271 -110 429.5t-312 158.5
q-201 0 -311.5 -159t-110.5 -429q0 -269 110.5 -427.5t311.5 -158.5zM582 -348v215h217v-215h-217z" />
    <glyph glyph-name="uni1ECD" unicode="&#x1ecd;" horiz-adv-x="1187" 
d="M594 -31q-226 0 -364 157t-138 417t138 416.5t364 156.5t364 -156.5t138 -416.5t-138 -417t-364 -157zM594 121q157 0 247.5 116t90.5 306q0 192 -90 308t-248 116q-156 0 -247 -116.5t-91 -307.5q0 -190 91 -306t247 -116zM485 -348v215h217v-215h-217z" />
    <glyph glyph-name="uni1ED8" unicode="&#x1ed8;" horiz-adv-x="1380" 
d="M690 1710l-145 -184l-125 94l139 178h262l140 -178l-125 -94zM690 1464q140 0 253 -55t188.5 -153.5t116 -236t40.5 -302.5q0 -221 -69.5 -389t-206 -263.5t-322.5 -95.5t-322.5 95.5t-206 263.5t-69.5 389q0 165 40.5 302.5t116 236t188.5 153.5t253 55zM690 131
q202 0 312 158.5t110 427.5q0 271 -110 429.5t-312 158.5q-201 0 -311.5 -159t-110.5 -429q0 -269 110.5 -427.5t311.5 -158.5zM586 -348v215h217v-215h-217z" />
    <glyph glyph-name="uni1ED9" unicode="&#x1ed9;" horiz-adv-x="1187" 
d="M594 1362l-145 -184l-125 94l139 178h262l139 -178l-125 -94zM594 1116q226 0 364 -156.5t138 -416.5t-138 -417t-364 -157t-364 157t-138 417t138 416.5t364 156.5zM594 121q157 0 247.5 116t90.5 306q0 192 -90 308t-248 116q-156 0 -247 -116.5t-91 -307.5
q0 -190 91 -306t247 -116zM485 -348v215h217v-215h-217z" />
    <glyph glyph-name="uni1EE4" unicode="&#x1ee4;" horiz-adv-x="1445" 
d="M725 -31q-251 0 -406 142.5t-155 388.5v934h176v-924q0 -184 102.5 -281.5t282.5 -97.5q178 0 280.5 97t102.5 282v924h174v-934q0 -246 -154 -388.5t-403 -142.5zM616 -348v215h218v-215h-218z" />
    <glyph glyph-name="uni1EE5" unicode="&#x1ee5;" horiz-adv-x="1204" 
d="M887 1085h164v-1085h-162v121q-50 -70 -135.5 -111t-182.5 -41q-197 0 -312.5 128t-115.5 335v653h164v-628q0 -162 69.5 -249t207.5 -87t219.5 87.5t81.5 240.5zM463 -348v215h217v-215h-217z" />
    <glyph glyph-name="Ygrave" unicode="&#x1ef2;" horiz-adv-x="1261" 
d="M723 1536h-180l-228 256h242zM1038 1434h209l-528 -820v-614h-176v614l-527 820h207l408 -652z" />
    <glyph glyph-name="ygrave" unicode="&#x1ef3;" horiz-adv-x="1101" 
d="M641 1188h-180l-228 256h242zM887 1085h184l-559 -1253q-37 -83 -96 -118.5t-158 -35.5q-44 0 -170 21l27 145q81 -16 143 -16q51 0 79 18t48 64l84 199l-438 976h186l334 -784z" />
    <glyph glyph-name="uni1EF4" unicode="&#x1ef4;" horiz-adv-x="1261" 
d="M543 0v614l-527 820h207l408 -652l407 652h209l-528 -820v-614h-176zM524 -317v215h217v-215h-217z" />
    <glyph glyph-name="uni1EF5" unicode="&#x1ef5;" horiz-adv-x="1101" 
d="M887 1085h184l-559 -1253q-37 -83 -96 -118.5t-158 -35.5q-44 0 -170 21l27 145q81 -16 143 -16q51 0 79 18t48 64l84 199l-438 976h186l334 -784zM705 -317v215h217v-215h-217z" />
    <glyph glyph-name="uni1EF8" unicode="&#x1ef8;" horiz-adv-x="1261" 
d="M498 1606q-57 0 -72 -70h-121q6 101 56 158t135 57q56 0 149 -39t125 -39q57 0 72 68h119q-4 -100 -55.5 -157.5t-133.5 -57.5q-56 0 -149.5 40t-124.5 40zM1038 1434h209l-528 -820v-614h-176v614l-527 820h207l408 -652z" />
    <glyph glyph-name="uni1EF9" unicode="&#x1ef9;" horiz-adv-x="1101" 
d="M416 1257q-57 0 -72 -69h-121q6 101 56 158t135 57q56 0 149 -39t125 -39q57 0 72 68h119q-4 -100 -55.5 -157.5t-133.5 -57.5q-56 0 -149.5 39.5t-124.5 39.5zM887 1085h184l-559 -1253q-37 -83 -96 -118.5t-158 -35.5q-44 0 -170 21l27 145q81 -16 143 -16q51 0 79 18
t48 64l84 199l-438 976h186l334 -784z" />
    <glyph glyph-name="uni2002" unicode="&#x2002;" horiz-adv-x="1536" 
 />
    <glyph glyph-name="uni2003" unicode="&#x2003;" horiz-adv-x="1249" 
 />
    <glyph glyph-name="uni2004" unicode="&#x2004;" horiz-adv-x="716" 
 />
    <glyph glyph-name="uni2005" unicode="&#x2005;" horiz-adv-x="460" 
 />
    <glyph glyph-name="uni2007" unicode="&#x2007;" horiz-adv-x="1331" 
 />
    <glyph glyph-name="uni2008" unicode="&#x2008;" horiz-adv-x="522" 
 />
    <glyph glyph-name="uni2009" unicode="&#x2009;" horiz-adv-x="307" 
 />
    <glyph glyph-name="uni200A" unicode="&#x200a;" horiz-adv-x="153" 
 />
    <glyph glyph-name="uni200B" unicode="&#x200b;" horiz-adv-x="0" 
 />
    <glyph glyph-name="endash" unicode="&#x2013;" horiz-adv-x="1228" 
d="M133 551v162h963v-162h-963z" />
    <glyph glyph-name="emdash" unicode="&#x2014;" horiz-adv-x="1536" 
d="M133 551v162h1270v-162h-1270z" />
    <glyph glyph-name="quoteleft" unicode="&#x2018;" horiz-adv-x="538" 
d="M395 1454v-123q-50 -9 -68 -31.5t-18 -72.5h97v-252h-273v213q0 118 68 186.5t194 79.5z" />
    <glyph glyph-name="quoteright" unicode="&#x2019;" horiz-adv-x="538" 
d="M143 954v123q50 9 68 31.5t18 73.5h-96v252h273v-213q0 -118 -68.5 -187t-194.5 -80z" />
    <glyph glyph-name="quotesinglbase" unicode="&#x201a;" horiz-adv-x="538" 
d="M143 -229v123q50 9 68 31.5t18 72.5h-96v252h273v-213q0 -118 -68.5 -186.5t-194.5 -79.5z" />
    <glyph glyph-name="quotedblleft" unicode="&#x201c;" horiz-adv-x="962" 
d="M387 1454v-119q-49 -9 -66.5 -31.5t-17.5 -70.5h94v-246h-266v207q0 116 66 182.5t190 77.5zM819 1454v-119q-49 -9 -66.5 -31.5t-17.5 -70.5h94v-246h-266v207q0 116 66 182.5t190 77.5z" />
    <glyph glyph-name="quotedblright" unicode="&#x201d;" horiz-adv-x="962" 
d="M143 969v118q48 9 66 32t18 71h-94v246h266v-207q0 -116 -66 -182.5t-190 -77.5zM575 969v118q48 9 66 32t18 71h-94v246h266v-207q0 -116 -66 -182.5t-190 -77.5z" />
    <glyph glyph-name="quotedblbase" unicode="&#x201e;" horiz-adv-x="962" 
d="M143 -221v119q49 9 66.5 31.5t17.5 70.5h-94v246h266v-207q0 -116 -66 -182.5t-190 -77.5zM575 -221v119q49 9 66.5 31.5t17.5 70.5h-94v246h266v-207q0 -116 -66 -182.5t-190 -77.5z" />
    <glyph glyph-name="dagger" unicode="&#x2020;" horiz-adv-x="1454" 
d="M639 -246v1172h-506v159h506v461h176v-461h506v-159h-506v-1172h-176z" />
    <glyph glyph-name="daggerdbl" unicode="&#x2021;" horiz-adv-x="1454" 
d="M1321 926h-506v-551h506v-162h-506v-459h-176v459h-506v162h506v551h-506v159h506v461h176v-461h506v-159z" />
    <glyph glyph-name="bullet" unicode="&#x2022;" horiz-adv-x="878" 
d="M440 567q-76 0 -125 47t-49 121q0 72 49 119t125 47q75 0 123.5 -47t48.5 -119q0 -73 -48.5 -120.5t-123.5 -47.5z" />
    <glyph glyph-name="ellipsis" unicode="&#x2026;" horiz-adv-x="1292" 
d="M133 0v240h242v-240h-242zM526 0v240h242v-240h-242zM918 0v240h241v-240h-241z" />
    <glyph glyph-name="perthousand" unicode="&#x2030;" horiz-adv-x="2672" 
d="M1280 1505l137 -61l-778 -1546l-137 59zM461 555q-158 0 -243 116.5t-85 332.5q0 215 85 331.5t243 116.5q157 0 241 -116.5t84 -331.5q0 -214 -84.5 -331.5t-240.5 -117.5zM461 700q170 0 170 304q0 305 -170 305t-170 -305q0 -304 170 -304zM1464 -18
q-157 0 -241 116.5t-84 331.5q0 217 84 333t241 116t242.5 -116.5t85.5 -332.5q0 -215 -85.5 -331.5t-242.5 -116.5zM2214 -18q-158 0 -243 116.5t-85 331.5q0 216 85 332.5t243 116.5q156 0 241 -117t85 -332t-85 -331.5t-241 -116.5zM1464 127q172 0 172 303
q0 305 -172 305q-170 0 -170 -305q0 -303 170 -303zM2214 127q170 0 170 303q0 305 -170 305q-172 0 -172 -305q0 -303 172 -303z" />
    <glyph glyph-name="guilsinglleft" unicode="&#x2039;" horiz-adv-x="727" 
d="M594 963q-62 -205 -234 -388q172 -184 234 -387l-162 -53q-41 124 -109 226t-190 214q122 112 190 214t109 227z" />
    <glyph glyph-name="guilsinglright" unicode="&#x203a;" horiz-adv-x="727" 
d="M295 1016q41 -125 109 -227t190 -214q-122 -112 -190 -214t-109 -226l-162 53q62 203 234 387q-172 183 -234 388z" />
    <glyph glyph-name="fraction" unicode="&#x2044;" horiz-adv-x="415" 
d="M541 1501l121 -53l-789 -1546l-119 51z" />
    <glyph glyph-name="uni207A" unicode="&#x207a;" horiz-adv-x="772" 
d="M707 1300v-118h-254v-267h-129v267h-256v118h256v254h129v-254h254z" />
    <glyph glyph-name="uni207B" unicode="&#x207b;" horiz-adv-x="649" 
d="M68 1176v124h516v-124h-516z" />
    <glyph glyph-name="lira" unicode="&#x20a4;" 
d="M1024 748h174q0 -220 -88.5 -390.5t-247 -264t-360.5 -93.5h-174v698l-185 -67l-51 129l236 86v149l-185 -67l-51 131l236 86v289h174v-226l305 111l49 -131l-354 -129v-150l305 111l49 -131l-354 -129v-598q122 0 221.5 45.5t164.5 124.5t100.5 186t35.5 230z" />
    <glyph glyph-name="uni20A8" unicode="&#x20a8;" 
d="M1204 1434v-148h-317q99 -80 117 -203h200v-147h-198q-15 -113 -93 -193t-196 -110q131 -36 196 -234l129 -399h-204l-101 344q-37 130 -113 193t-198 63h-334v158h481q99 0 166.5 47.5t91.5 130.5h-739v147h744q-20 89 -90 140t-173 51h-481v160h1112z" />
    <glyph glyph-name="uni20A9" unicode="&#x20a9;" horiz-adv-x="1732" 
d="M1677 1004h-227l-27 -175h254v-149h-276l-103 -680h-223l-192 680h-33l-193 -680h-223l-102 680h-275v149h252l-26 175h-226v147h203l-43 283h178l39 -283h866l39 283h177l-43 -283h204v-147zM455 1004l22 -175h258l45 175h-325zM1255 829l25 175h-328l47 -175h256z
M565 193l129 487h-196zM1167 199l68 481h-197z" />
    <glyph glyph-name="Euro" unicode="&#x20ac;" horiz-adv-x="1454" 
d="M1157 498l164 -39q-45 -230 -194 -360t-363 -130q-221 0 -369.5 132.5t-201.5 363.5l-156 -16v149l133 14q-4 66 -4 105v43l-129 -12v149l145 14q42 257 194.5 405t387.5 148q212 0 360 -125t195 -342l-166 -36q-41 168 -141.5 256t-247.5 88q-156 0 -259.5 -99
t-142.5 -276l441 45v-150l-459 -47q-2 -20 -2 -61q0 -30 4 -88l457 47v-150l-434 -45q40 -166 142 -258t253 -92q150 0 252 92.5t141 274.5z" />
    <glyph glyph-name="uni20BD" unicode="&#x20bd;" horiz-adv-x="1556" 
d="M961 1434q204 0 333 -121.5t129 -306.5t-129.5 -308t-332.5 -123h-416v-139h354v-149h-354v-287h-176v287h-256v149h256v152h-256v149h256v697h592zM946 737q137 0 220 74t83 195q0 120 -83.5 194t-219.5 74h-401v-537h401z" />
    <glyph glyph-name="uni20BF" unicode="&#x20bf;" horiz-adv-x="1402" 
d="M1280 412q0 -153 -96.5 -261t-257.5 -139v-264h-174v252h-164v-252h-174v252h-178v1434h178v241h174v-241h164v241h174v-258q129 -34 207.5 -129.5t78.5 -224.5q0 -101 -50 -178t-140 -119q120 -43 189 -136t69 -218zM410 1274v-440h372q118 0 187 61.5t69 167.5
q0 96 -69.5 153.5t-186.5 57.5h-372zM795 162q145 0 228 68t83 188q0 118 -84 188t-227 70h-385v-514h385z" />
    <glyph glyph-name="uni2117" unicode="&#x2117;" horiz-adv-x="1361" 
d="M682 84q-239 0 -394 162t-155 411q0 250 155 412t394 162q238 0 392.5 -162t154.5 -412q0 -249 -154.5 -411t-392.5 -162zM682 213q182 0 296 122.5t114 321.5q0 198 -113.5 321.5t-296.5 123.5q-184 0 -298 -123.5t-114 -321.5t114.5 -321t297.5 -123zM500 322v671h221
q108 0 177 -62.5t69 -166.5t-69.5 -165.5t-178.5 -61.5h-103v-215h-116zM616 643h103q131 0 131 121q0 123 -131 123h-103v-244z" />
    <glyph glyph-name="trademark" unicode="&#x2122;" horiz-adv-x="1433" 
d="M133 1337v97h465v-97h-178v-583h-109v583h-178zM1151 1434h149v-680h-106v495l-158 -495h-102l-160 495v-495h-106v680h147l170 -529z" />
    <glyph glyph-name="oneeighth" unicode="&#x215b;" horiz-adv-x="1662" 
d="M1079 1501l121 -53l-788 -1546l-119 51zM422 573h-141v660q-83 -80 -228 -121l-37 127q99 30 163 73t120 122h123v-861zM1483 461q57 -29 93 -88.5t36 -126.5q0 -115 -85.5 -189.5t-217.5 -74.5q-131 0 -216 74.5t-85 189.5q0 67 35 125.5t94 89.5q-105 61 -105 180
q0 103 78.5 170.5t198.5 67.5t199 -67.5t79 -170.5q0 -117 -104 -180zM1309 754q-62 0 -100 -32.5t-38 -86.5q0 -55 37.5 -88t100.5 -33t100 32.5t37 88.5q0 54 -37.5 86.5t-99.5 32.5zM1309 113q73 0 117 39t44 102q0 66 -43 104.5t-118 38.5q-74 0 -117 -38.5t-43 -104.5
q0 -64 44 -102.5t116 -38.5z" />
    <glyph glyph-name="threeeighths" unicode="&#x215c;" horiz-adv-x="1824" 
d="M1241 1501l121 -53l-789 -1546l-118 51zM645 846q0 -132 -88 -211.5t-219 -79.5q-136 0 -223 79.5t-99 217.5l140 18q15 -184 182 -184q70 0 118 42t48 118q0 158 -178 158h-133v94l264 205h-387v131h557l2 -142l-242 -188q117 -3 187.5 -71.5t70.5 -186.5zM1645 461
q57 -29 93 -88.5t36 -126.5q0 -115 -86 -189.5t-218 -74.5q-131 0 -216 74.5t-85 189.5q0 67 35 125.5t94 89.5q-104 61 -104 180q0 103 78 170.5t198 67.5t199.5 -67.5t79.5 -170.5q0 -117 -104 -180zM1470 754q-62 0 -99.5 -32.5t-37.5 -86.5q0 -56 37 -88.5t100 -32.5
t100.5 33t37.5 88q0 54 -38 86.5t-100 32.5zM1470 113q73 0 117.5 39t44.5 102q0 66 -43.5 104.5t-118.5 38.5q-73 0 -116 -38.5t-43 -104.5q0 -64 43.5 -102.5t115.5 -38.5z" />
    <glyph glyph-name="fiveeighths" unicode="&#x215d;" horiz-adv-x="1867" 
d="M1284 1501l121 -53l-789 -1546l-118 51zM698 858q0 -135 -90 -219t-231 -84q-120 0 -207 67t-113 179l136 39q17 -74 64.5 -114t119.5 -40q82 0 131 46.5t49 125.5q0 72 -48.5 116t-125.5 44q-102 0 -178 -92l-125 30l84 478h461v-131h-342l-39 -209q66 47 157 47
q128 0 212.5 -81t84.5 -202zM1688 461q57 -29 93 -88.5t36 -126.5q0 -115 -86 -189.5t-218 -74.5q-131 0 -216 74.5t-85 189.5q0 67 35 125.5t94 89.5q-104 61 -104 180q0 103 78 170.5t198 67.5t199.5 -67.5t79.5 -170.5q0 -117 -104 -180zM1513 754q-62 0 -99.5 -32.5
t-37.5 -86.5q0 -56 37 -88.5t100 -32.5t100.5 33t37.5 88q0 54 -38 86.5t-100 32.5zM1513 113q73 0 117.5 39t44.5 102q0 66 -43.5 104.5t-118.5 38.5q-73 0 -116 -38.5t-43 -104.5q0 -64 43.5 -102.5t115.5 -38.5z" />
    <glyph glyph-name="arrowleft" unicode="&#x2190;" 
d="M1198 784v-153h-782q92 -59 174 -137.5t176 -196.5l-125 -102q-125 162 -266 283.5t-324 228.5q180 104 320.5 225t269.5 287l125 -101q-179 -228 -350 -334h782z" />
    <glyph glyph-name="arrowup" unicode="&#x2191;" 
d="M635 1319q105 -178 228 -319t290 -271l-100 -121q-123 99 -201 178.5t-135 167.5v-778h-162v780q-59 -91 -139 -172.5t-199 -175.5l-98 121q167 130 291.5 272.5t224.5 317.5z" />
    <glyph glyph-name="arrowright" unicode="&#x2192;" 
d="M649 1219q129 -166 269.5 -287t320.5 -225q-183 -107 -324 -228.5t-266 -283.5l-125 102q94 118 176 196.5t174 137.5h-782v153h782q-171 106 -350 334z" />
    <glyph glyph-name="arrowdown" unicode="&#x2193;" 
d="M1053 887l100 -121q-167 -130 -290 -271t-228 -319q-100 175 -224.5 317.5t-291.5 272.5l98 121q119 -94 199 -175.5t139 -172.5v780h162v-778q57 88 135 167.5t201 178.5z" />
    <glyph glyph-name="arrowboth" unicode="&#x2194;" 
d="M905 1214q132 -168 272 -286.5t318 -220.5q-184 -107 -322.5 -225.5t-267.5 -282.5l-117 96q99 121 183 201.5t178 138.5h-1028q95 -58 177 -136.5t183 -203.5l-116 -96q-128 164 -268.5 284.5t-321.5 223.5q181 104 319.5 221.5t270.5 285.5l116 -94q-97 -121 -181 -201
t-177 -139h1024q-93 58 -175.5 137t-183.5 203z" />
    <glyph glyph-name="arrowupdn" unicode="&#x2195;" 
d="M711 295q57 94 135 177.5t198 180.5l93 -112q-163 -129 -279.5 -270.5t-222.5 -325.5q-104 183 -221.5 325.5t-280.5 270.5l94 112q120 -99 198.5 -182.5t135.5 -175.5v907q-60 -96 -138 -180t-196 -178l-94 112q162 129 281.5 272t220.5 322q107 -185 223 -325.5
t279 -268.5l-93 -112q-122 99 -199.5 181.5t-133.5 174.5v-905z" />
    <glyph glyph-name="uni2196" unicode="&#x2196;" 
d="M1085 395l-112 -110l-557 555q42 -191 8 -484l-156 17q26 222 13 399.5t-66 378.5q201 -54 381.5 -67t396.5 14l15 -158q-144 -16 -262.5 -14t-221.5 26z" />
    <glyph glyph-name="uni2197" unicode="&#x2197;" 
d="M1055 1151q-53 -202 -66.5 -378.5t12.5 -399.5l-155 -17q-34 293 8 484l-557 -555l-113 110l561 557q-103 -24 -221 -26t-262 14l14 158q216 -27 397 -14t382 67z" />
    <glyph glyph-name="uni2198" unicode="&#x2198;" 
d="M1001 1075q-26 -223 -12.5 -399.5t66.5 -378.5q-201 54 -382 67t-397 -14l-14 158q144 16 262 14t221 -26l-561 557l113 110l557 -555q-42 191 -8 484z" />
    <glyph glyph-name="uni2199" unicode="&#x2199;" 
d="M524 496q103 24 221.5 26t262.5 -14l-15 -158q-216 27 -396.5 14t-381.5 -67q53 201 66 378.5t-13 399.5l156 17q34 -293 -8 -484l557 555l112 -110z" />
    <glyph glyph-name="uni21B3" unicode="&#x21b3;" 
d="M649 1219q129 -166 269.5 -287t320.5 -225q-183 -107 -324 -228.5t-266 -283.5l-125 102q94 118 176 196.5t174 137.5h-782v803h164v-650h618q-171 106 -350 334z" />
    <glyph glyph-name="partialdiff" unicode="&#x2202;" 
d="M635 1464q160 1 278 -89t181 -259t63 -399q0 -361 -140.5 -554.5t-402.5 -193.5q-218 0 -359.5 149t-141.5 378q0 220 138 354.5t359 134.5q200 0 365 -115q-25 208 -113 322t-227 113q-80 -2 -144.5 -35t-134.5 -109l-118 119q91 95 186.5 139.5t210.5 44.5zM614 131
q357 0 369 547q-185 147 -373 147q-147 0 -235 -88.5t-88 -238.5q0 -158 93 -262.5t234 -104.5z" />
    <glyph glyph-name="emptyset" unicode="&#x2205;" 
d="M1085 1104q154 -157 154 -385q0 -155 -74.5 -282t-206 -200t-292.5 -73q-182 0 -322 92l-135 -154l-98 80l135 154q-72 75 -112 174t-40 209q0 236 164 395.5t408 159.5q179 0 321 -90l139 157l99 -79zM258 719q0 -153 92 -262l533 608q-96 55 -217 55
q-180 0 -294 -114.5t-114 -286.5zM666 317q179 0 294 115.5t115 286.5q0 152 -94 264l-535 -608q96 -58 220 -58z" />
    <glyph glyph-name="product" unicode="&#x220f;" 
d="M330 -246v1520h-258v160h1126v-160h-258v-1520h-174v1520h-262v-1520h-174z" />
    <glyph glyph-name="summation" unicode="&#x2211;" 
d="M113 -246v150l583 690l-583 690v150h1044v-160h-813l565 -680l-565 -680h813v-160h-1044z" />
    <glyph glyph-name="minus" unicode="&#x2212;" 
d="M215 614v177h840v-177h-840z" />
    <glyph glyph-name="radical" unicode="&#x221a;" 
d="M309 696h-258v160h381l203 -610l405 1188h179l-500 -1434h-166z" />
    <glyph glyph-name="infinity" unicode="&#x221e;" 
d="M920 1141q136 0 230.5 -131t94.5 -326q0 -198 -94.5 -329.5t-230.5 -131.5q-97 0 -170.5 63t-112.5 177q-40 -114 -114 -177t-171 -63q-137 0 -231 131.5t-94 329.5q0 195 94 326t231 131q96 0 169.5 -62.5t113.5 -175.5q40 113 114.5 175.5t170.5 62.5zM352 375
q82 0 136.5 78t76.5 231q-23 151 -78.5 229t-134.5 78q-77 0 -129.5 -88t-52.5 -219q0 -135 52.5 -222t129.5 -87zM920 375q76 0 128 87t52 222q0 132 -51.5 219.5t-128.5 87.5q-80 0 -136 -78t-77 -229q22 -153 76.5 -231t136.5 -78z" />
    <glyph glyph-name="integral" unicode="&#x222b;" 
d="M954 1434h152v-160h-148q-129 0 -182 -60t-53 -225v-1016q0 -225 -104 -329.5t-304 -104.5h-151v160h149q128 0 181 60t53 225v1015q0 226 103.5 330.5t303.5 104.5z" />
    <glyph glyph-name="approxequal" unicode="&#x2248;" 
d="M248 758l-150 47q32 129 118.5 200.5t207.5 71.5q63 0 127 -25.5t107 -56.5t94.5 -56.5t93.5 -25.5q132 0 178 164l147 -47q-32 -129 -117.5 -200.5t-207.5 -71.5q-62 0 -125.5 25.5t-107 56.5t-95.5 56.5t-94 25.5q-127 0 -176 -164zM248 365l-150 47
q32 129 118.5 200.5t207.5 71.5q63 0 127 -25.5t107 -56.5t94.5 -56.5t93.5 -25.5q132 0 178 164l147 -47q-32 -129 -117.5 -200.5t-207.5 -71.5q-62 0 -125.5 25.5t-107 56t-95.5 56t-94 25.5q-127 0 -176 -163z" />
    <glyph glyph-name="notequal" unicode="&#x2260;" 
d="M1055 827h-262l-140 -264h402v-176h-496l-147 -276l-127 65l112 211h-182v176h274l142 264h-416v177h510l137 260l127 -68l-102 -192h168v-177z" />
    <glyph glyph-name="lessequal" unicode="&#x2264;" 
d="M1081 1210l-710 -385l710 -385l-82 -141l-813 442v168l813 443zM186 0v162h885v-162h-885z" />
    <glyph glyph-name="greaterequal" unicode="&#x2265;" 
d="M270 1352l813 -443v-168l-813 -442l-82 141l711 385l-711 385zM199 0v162h884v-162h-884z" />
    <glyph glyph-name="lozenge" unicode="&#x25ca;" horiz-adv-x="1392" 
d="M612 0l-479 717l479 717h170l478 -717l-478 -717h-170zM696 162l367 555l-367 557l-366 -557z" />
    <glyph glyph-name="uniF8FF" unicode="&#xf8ff;" horiz-adv-x="1404" 
d="M102 -10v866q0 127 45.5 238t125 190t190.5 124.5t237 45.5q128 0 240 -45.5t191.5 -124.5t125.5 -190t46 -238v-866h-58l-133 133l-139 -133l-129 133l-146 -133l-141 133l-129 -133l-137 133l-135 -133h-54zM442 629q60 0 103 41.5t43 101.5q0 62 -42.5 105t-103.5 43
q-60 0 -102.5 -43.5t-42.5 -104.5q0 -59 42.5 -101t102.5 -42zM963 629q60 0 103.5 42.5t43.5 100.5q0 62 -43 105t-104 43q-60 0 -102 -43t-42 -105q0 -58 42.5 -100.5t101.5 -42.5z" />
    <glyph glyph-name="uniFEFF" unicode="&#xfeff;" horiz-adv-x="0" 
 />
    <glyph glyph-name="E.ss01" horiz-adv-x="1167" 
d="M174 0v1434h901v-160h-725v-443h656v-155h-656v-514h725v-162h-901z" />
    <glyph glyph-name="Eacute.ss01" horiz-adv-x="1167" 
d="M524 1536l166 256h242l-227 -256h-181zM174 0v1434h901v-160h-725v-443h656v-155h-656v-514h725v-162h-901z" />
    <glyph glyph-name="Ebreve.ss01" horiz-adv-x="1167" 
d="M627 1516q-119 0 -193 68.5t-74 184.5h117q9 -54 47 -84t103 -30q128 0 151 114h115q0 -116 -74 -184.5t-192 -68.5zM174 0v1434h901v-160h-725v-443h656v-155h-656v-514h725v-162h-901z" />
    <glyph glyph-name="Ecaron.ss01" horiz-adv-x="1167" 
d="M758 1536h-262l-140 178l125 94l146 -184l145 184l125 -94zM1075 1274h-725v-443h656v-155h-656v-514h725v-162h-901v1434h901v-160z" />
    <glyph glyph-name="uni0228.ss01" horiz-adv-x="1167" 
d="M1075 1274h-725v-443h656v-155h-656v-514h725v-162h-411l-60 -102q38 10 76 10q88 0 146.5 -50t58.5 -126q0 -90 -65 -147.5t-173 -57.5q-87 0 -153.5 38t-100.5 105l111 64q26 -47 59 -66.5t84 -19.5q52 0 80.5 23t26.5 61q0 35 -29 56.5t-78 21.5q-53 0 -108 -35
l-101 55l99 170h-363v1434h901v-160z" />
    <glyph glyph-name="Ecircumflex.ss01" horiz-adv-x="1167" 
d="M627 1679l-146 -184l-125 94l140 178h262l139 -178l-125 -94zM1075 1274h-725v-443h656v-155h-656v-514h725v-162h-901v1434h901v-160z" />
    <glyph glyph-name="uni1EC6.ss01" horiz-adv-x="1167" 
d="M627 1679l-146 -184l-125 94l140 178h262l139 -178l-125 -94zM1075 1274h-725v-443h656v-155h-656v-514h725v-162h-901v1434h901v-160zM518 -317v215h217v-215h-217z" />
    <glyph glyph-name="Edieresis.ss01" horiz-adv-x="1167" 
d="M313 1536v209h209v-209h-209zM731 1536v209h209v-209h-209zM174 0v1434h901v-160h-725v-443h656v-155h-656v-514h725v-162h-901z" />
    <glyph glyph-name="Edotaccent.ss01" horiz-adv-x="1167" 
d="M518 1536v215h217v-215h-217zM174 0v1434h901v-160h-725v-443h656v-155h-656v-514h725v-162h-901z" />
    <glyph glyph-name="uni1EB8.ss01" horiz-adv-x="1167" 
d="M174 0v1434h901v-160h-725v-443h656v-155h-656v-514h725v-162h-901zM518 -317v215h217v-215h-217z" />
    <glyph glyph-name="Egrave.ss01" horiz-adv-x="1167" 
d="M717 1536h-180l-228 256h242zM174 0v1434h901v-160h-725v-443h656v-155h-656v-514h725v-162h-901z" />
    <glyph glyph-name="Emacron.ss01" horiz-adv-x="1167" 
d="M289 1536v139h676v-139h-676zM174 0v1434h901v-160h-725v-443h656v-155h-656v-514h725v-162h-901z" />
    <glyph glyph-name="Eogonek.ss01" horiz-adv-x="1167" 
d="M1051 -223l63 -127q-139 -74 -254 -74q-108 0 -172.5 48.5t-64.5 129.5q0 140 198 246h-647v1434h901v-160h-725v-443h656v-155h-656v-514h725v-162h-82q-122 -69 -172.5 -118.5t-50.5 -100.5q0 -68 90 -68q83 0 191 64z" />
    <glyph glyph-name="uni018E.ss01" horiz-adv-x="1167" 
d="M993 0h-901v162h725v514h-655v155h655v443h-725v160h901v-1434z" />
    <glyph glyph-name="uni1EBC.ss01" horiz-adv-x="1167" 
d="M766 1526q-56 0 -149.5 40t-124.5 40q-57 0 -72 -70h-121q6 102 56 158.5t134 56.5q56 0 149.5 -39t125.5 -39q57 0 72 68h118q-4 -101 -55 -158t-133 -57zM174 0v1434h901v-160h-725v-443h656v-155h-656v-514h725v-162h-901z" />
    <glyph glyph-name="F.ss01" horiz-adv-x="1146" 
d="M174 0v1434h901v-160h-725v-477h656v-160h-656v-637h-176z" />
    <glyph glyph-name="G.ss01" horiz-adv-x="1335" 
d="M598 721h655v-215q0 -109 -39.5 -206.5t-110.5 -171t-178 -116.5t-235 -43q-184 0 -320.5 94.5t-207 263t-70.5 390.5q0 223 70.5 391t206.5 262t321 94q211 0 358 -124.5t197 -342.5l-166 -36q-41 168 -141.5 256t-247.5 88q-199 0 -310.5 -158.5t-111.5 -429.5
t111.5 -428.5t310.5 -157.5q178 0 282.5 108t104.5 267v53h-479v162z" />
    <glyph glyph-name="Gbreve.ss01" horiz-adv-x="1335" 
d="M690 1546q-118 0 -192 69t-74 185h117q20 -114 149 -114t152 114h114q0 -116 -74 -185t-192 -69zM598 721h655v-215q0 -109 -39.5 -206.5t-110.5 -171t-178 -116.5t-235 -43q-184 0 -320.5 94.5t-207 263t-70.5 390.5q0 223 70.5 391t206.5 262t321 94q211 0 358 -124.5
t197 -342.5l-166 -36q-41 168 -141.5 256t-247.5 88q-199 0 -310.5 -158.5t-111.5 -429.5t111.5 -428.5t310.5 -157.5q178 0 282.5 108t104.5 267v53h-479v162z" />
    <glyph glyph-name="Gcircumflex.ss01" horiz-adv-x="1335" 
d="M690 1710l-145 -184l-125 94l139 178h262l140 -178l-125 -94zM598 721h655v-215q0 -109 -39.5 -206.5t-110.5 -171t-178 -116.5t-235 -43q-184 0 -320.5 94.5t-207 263t-70.5 390.5q0 223 70.5 391t206.5 262t321 94q211 0 358 -124.5t197 -342.5l-166 -36
q-41 168 -141.5 256t-247.5 88q-199 0 -310.5 -158.5t-111.5 -429.5t111.5 -428.5t310.5 -157.5q178 0 282.5 108t104.5 267v53h-479v162z" />
    <glyph glyph-name="Gcommaaccent.ss01" horiz-adv-x="1335" 
d="M598 721h655v-215q0 -109 -39.5 -206.5t-110.5 -171t-178 -116.5t-235 -43q-184 0 -320.5 94.5t-207 263t-70.5 390.5q0 223 70.5 391t206.5 262t321 94q211 0 358 -124.5t197 -342.5l-166 -36q-41 168 -141.5 256t-247.5 88q-199 0 -310.5 -158.5t-111.5 -429.5
t111.5 -428.5t310.5 -157.5q178 0 282.5 108t104.5 267v53h-479v162zM582 -334v201h215v-170q0 -92 -53 -146.5t-150 -62.5v96q36 7 49.5 25t13.5 57h-75z" />
    <glyph glyph-name="Gdotaccent.ss01" horiz-adv-x="1335" 
d="M799 1782v-215h-217v215h217zM598 721h655v-215q0 -109 -39.5 -206.5t-110.5 -171t-178 -116.5t-235 -43q-184 0 -320.5 94.5t-207 263t-70.5 390.5q0 223 70.5 391t206.5 262t321 94q211 0 358 -124.5t197 -342.5l-166 -36q-41 168 -141.5 256t-247.5 88
q-199 0 -310.5 -158.5t-111.5 -429.5t111.5 -428.5t310.5 -157.5q178 0 282.5 108t104.5 267v53h-479v162z" />
    <glyph glyph-name="J.ss01" horiz-adv-x="1116" 
d="M203 410q22 -147 89 -213t193 -66q142 0 217.5 91.5t75.5 275.5v936h174v-945q0 -252 -125 -386t-342 -134q-198 0 -312 105t-142 309z" />
    <glyph glyph-name="Jcircumflex.ss01" horiz-adv-x="1116" 
d="M997 1767l140 -178l-125 -94l-146 184l-145 -184l-125 94l139 178h262zM778 498v936h174v-945q0 -252 -125 -386t-342 -134q-198 0 -312 105t-142 309l172 27q22 -147 89 -213t193 -66q142 0 217.5 91.5t75.5 275.5z" />
    <glyph glyph-name="M.ss01" horiz-adv-x="1708" 
d="M1292 1434h242v-1434h-162v1196l-471 -1196h-94l-471 1202v-1202h-162v1434h242l438 -1143z" />
    <glyph glyph-name="Q.ss01" horiz-adv-x="1380" 
d="M1288 717q0 -310 -136.5 -511t-379.5 -233q13 -177 289 -180v-149q-214 0 -338.5 90t-130.5 243q-235 35 -367.5 235t-132.5 505q0 165 40.5 302.5t116 236t188.5 153.5t253 55t253 -55t188.5 -153.5t116 -236t40.5 -302.5zM690 131q202 0 312 158.5t110 427.5
q0 271 -110 429.5t-312 158.5q-201 0 -311.5 -159t-110.5 -429q0 -269 110.5 -427.5t311.5 -158.5z" />
    <glyph glyph-name="R.ss01" horiz-adv-x="1339" 
d="M1247 0h-192l-353 612h-352v-612h-176v1434h598q199 0 322 -115.5t123 -294.5q0 -151 -87.5 -258t-236.5 -141zM350 1274v-500h408q129 0 206.5 65.5t77.5 184.5t-77.5 184.5t-206.5 65.5h-408z" />
    <glyph glyph-name="Racute.ss01" horiz-adv-x="1339" 
d="M934 1792l-227 -256h-181l166 256h242zM1247 0h-192l-353 612h-352v-612h-176v1434h598q199 0 322 -115.5t123 -294.5q0 -151 -87.5 -258t-236.5 -141zM350 1274v-500h408q129 0 206.5 65.5t77.5 184.5t-77.5 184.5t-206.5 65.5h-408z" />
    <glyph glyph-name="Rcaron.ss01" horiz-adv-x="1339" 
d="M760 1536h-262l-140 178l125 94l146 -184l145 184l125 -94zM1247 0h-192l-353 612h-352v-612h-176v1434h598q199 0 322 -115.5t123 -294.5q0 -151 -87.5 -258t-236.5 -141zM350 1274v-500h408q129 0 206.5 65.5t77.5 184.5t-77.5 184.5t-206.5 65.5h-408z" />
    <glyph glyph-name="Rcommaaccent.ss01" horiz-adv-x="1339" 
d="M893 625l354 -625h-192l-353 612h-352v-612h-176v1434h598q199 0 322 -115.5t123 -294.5q0 -151 -87.5 -258t-236.5 -141zM350 1274v-500h408q129 0 206.5 65.5t77.5 184.5t-77.5 184.5t-206.5 65.5h-408zM561 -303v201h215v-170q0 -92 -53 -146.5t-150 -62.5v96
q36 7 50 25t14 57h-76z" />
    <glyph glyph-name="W.ss01" horiz-adv-x="1853" 
d="M1616 1434h166l-289 -1434h-195l-370 1153l-373 -1153h-195l-288 1434h166l239 -1176l377 1176h145l377 -1172z" />
    <glyph glyph-name="Wacute.ss01" horiz-adv-x="1853" 
d="M1233 1792l-227 -256h-181l166 256h242zM1616 1434h166l-289 -1434h-195l-370 1153l-373 -1153h-195l-288 1434h166l239 -1176l377 1176h145l377 -1172z" />
    <glyph glyph-name="Wcircumflex.ss01" horiz-adv-x="1853" 
d="M928 1679l-146 -184l-125 94l140 178h262l139 -178l-125 -94zM1616 1434h166l-289 -1434h-195l-370 1153l-373 -1153h-195l-288 1434h166l239 -1176l377 1176h145l377 -1172z" />
    <glyph glyph-name="Wdieresis.ss01" horiz-adv-x="1853" 
d="M823 1745v-209h-209v209h209zM1241 1745v-209h-209v209h209zM1616 1434h166l-289 -1434h-195l-370 1153l-373 -1153h-195l-288 1434h166l239 -1176l377 1176h145l377 -1172z" />
    <glyph glyph-name="Wgrave.ss01" horiz-adv-x="1853" 
d="M1018 1536h-180l-228 256h242zM1616 1434h166l-289 -1434h-195l-370 1153l-373 -1153h-195l-288 1434h166l239 -1176l377 1176h145l377 -1172z" />
    <glyph glyph-name="Adieresis.ss03" horiz-adv-x="1423" 
d="M1214 0l-159 395h-684l-160 -395h-180l489 1194h47v113l54 127h184l49 -121v-119h49l490 -1194h-179zM537 1434v-209h-209v209h209zM1094 1434v-209h-209v209h209zM432 547h561l-280 690z" />
    <glyph glyph-name="Odieresis.ss03" horiz-adv-x="1380" 
d="M690 -31q-186 0 -322.5 95.5t-206 263.5t-69.5 389q0 285 115 477h145v162q139 108 338 108q198 0 338 -106v-164h146q114 -196 114 -477q0 -221 -69.5 -389t-206 -263.5t-322.5 -95.5zM113 1225v209h209v-209h-209zM1059 1225v209h209v-209h-209zM690 131
q202 0 312 158.5t110 427.5q0 271 -110 429.5t-312 158.5q-201 0 -311.5 -159t-110.5 -429q0 -269 110.5 -427.5t311.5 -158.5z" />
    <glyph glyph-name="Udieresis.ss03" horiz-adv-x="1445" 
d="M164 500v934h115v-240h61v-684q0 -184 102.5 -281.5t282.5 -97.5q178 0 280.5 97t102.5 282v684h68v240h106v-934q0 -246 -154 -388.5t-403 -142.5q-251 0 -406 142.5t-155 388.5zM309 1225v209h209v-209h-209zM936 1225v209h209v-209h-209z" />
    <glyph glyph-name="i.loclTRK" horiz-adv-x="471" 
d="M127 1239v219h217v-219h-217zM154 0v1085h163v-1085h-163z" />
    <glyph glyph-name="a.ordn" horiz-adv-x="694" 
d="M670 893l16 -109q-46 -10 -86 -10q-44 0 -74.5 22t-42.5 62q-30 -43 -85 -67.5t-126 -24.5q-100 0 -162.5 52.5t-62.5 137.5q0 80 52.5 127t170.5 72q108 24 145.5 44t37.5 56q0 37 -35 60.5t-92 23.5q-66 0 -110.5 -35.5t-51.5 -95.5l-117 19q13 98 91 159.5t188 61.5
q114 0 180.5 -56t66.5 -153v-295q0 -57 48 -57q25 0 49 6zM453 1004v120q-10 -17 -39.5 -29t-112.5 -34q-75 -22 -104 -43.5t-29 -56.5q0 -40 30 -62t85 -22q74 0 122 36t48 91z" />
    <glyph glyph-name="b.ordn" horiz-adv-x="727" 
d="M385 1448q132 0 214.5 -95t82.5 -249t-82.5 -249t-214.5 -95q-113 0 -184 74v-56h-123v860h125v-260q63 70 182 70zM375 877q83 0 131.5 61.5t48.5 165.5q0 106 -48.5 166.5t-133.5 60.5q-76 0 -123 -46t-47 -120v-118q0 -75 47.5 -122.5t124.5 -47.5z" />
    <glyph glyph-name="c.ordn" horiz-adv-x="679" 
d="M356 760q-136 0 -222.5 95t-86.5 249t86.5 249t222.5 95q107 0 186.5 -61t102.5 -164l-123 -29q-15 64 -59.5 100.5t-106.5 36.5q-84 0 -134 -62t-50 -165q0 -102 50 -164.5t134 -62.5q67 0 110 38t56 111l123 -27q-20 -112 -98 -175.5t-191 -63.5z" />
    <glyph glyph-name="d.ordn" horiz-adv-x="727" 
d="M524 1638h127v-860h-125v56q-71 -74 -184 -74q-132 0 -213.5 95.5t-81.5 248.5q0 154 81.5 249t213.5 95q115 0 182 -70v260zM524 1047v118q0 74 -47 120t-123 46q-85 0 -133.5 -60.5t-48.5 -166.5q0 -104 48.5 -165.5t131.5 -61.5q78 0 125 47.5t47 122.5z" />
    <glyph glyph-name="e.ordn" horiz-adv-x="692" 
d="M170 1057q9 -87 55.5 -137t120.5 -50q63 0 106 30.5t78 94.5l95 -63q-39 -83 -112.5 -127.5t-166.5 -44.5q-137 0 -218 94t-81 250t82 250t217 94q134 0 217.5 -94t83.5 -250v-47h-477zM346 1337q-75 0 -123.5 -49.5t-52.5 -132.5h350q-10 93 -56 137.5t-118 44.5z" />
    <glyph glyph-name="f.ordn" horiz-adv-x="512" 
d="M158 778v535h-150v117h150v69q0 77 48.5 124.5t127.5 47.5q84 0 178 -55l-53 -100q-69 38 -115 38q-59 0 -59 -63v-61h200v-117h-200v-535h-127z" />
    <glyph glyph-name="g.ordn" horiz-adv-x="702" 
d="M451 850q217 -23 217 -176q0 -92 -82 -141.5t-232 -49.5q-149 0 -233 49.5t-84 135.5q0 40 24 78t70 63q-70 39 -70 113q0 33 20 64t58 52q-65 68 -65 164q0 105 78 175.5t200 70.5q68 0 129 -25q14 53 55 92t105 56l41 -94q-106 -35 -127 -103q76 -70 76 -172
q0 -105 -79 -175.5t-200 -70.5q-75 0 -143 33q-39 -19 -39 -53q0 -57 121 -68zM352 1343q-71 0 -116.5 -40t-45.5 -101q0 -59 45.5 -99t116.5 -40q70 0 115 40t45 99q0 61 -45 101t-115 40zM354 590q95 0 146 22.5t51 65.5q0 68 -119 78l-188 20h-6q-38 -10 -60 -36.5
t-22 -59.5q0 -90 198 -90z" />
    <glyph glyph-name="h.ordn" horiz-adv-x="735" 
d="M403 1448q113 0 187 -74t74 -196v-400h-127v383q0 83 -41 126.5t-119 43.5t-126 -47t-48 -125v-381h-125v860h125v-272q32 38 85.5 60t114.5 22z" />
    <glyph glyph-name="i.ordn" horiz-adv-x="274" 
d="M63 1516v143h146v-143h-146zM76 778v652h125v-652h-125z" />
    <glyph glyph-name="j.ordn" horiz-adv-x="456" 
d="M381 1659v-143h-145v143h145zM383 1430v-644q0 -110 -64 -175.5t-167 -65.5q-80 0 -168 30l36 109q71 -22 115 -22q59 0 91 34t32 99v518h-223v117h348z" />
    <glyph glyph-name="k.ordn" horiz-adv-x="665" 
d="M514 778l-215 303l-96 -104v-199h-125v860h125v-503l262 295h164l-248 -269l276 -383h-143z" />
    <glyph glyph-name="l.ordn" horiz-adv-x="280" 
d="M78 778v860h125v-860h-125z" />
    <glyph glyph-name="m.ordn" horiz-adv-x="1079" 
d="M760 1448q114 0 181 -69t67 -189v-412h-127v412q0 141 -133 141q-66 0 -104 -38.5t-38 -104.5v-410h-127v412q0 141 -133 141q-65 0 -104 -38t-39 -105v-410h-125v652h121v-58q59 76 172 76q61 0 111.5 -25.5t80.5 -68.5q69 94 197 94z" />
    <glyph glyph-name="n.ordn" horiz-adv-x="735" 
d="M403 1448q113 0 187 -74t74 -196v-400h-127v383q0 83 -41 126.5t-119 43.5t-126 -47t-48 -125v-381h-125v652h123v-66q33 39 86.5 61.5t115.5 22.5z" />
    <glyph glyph-name="o.ordn" horiz-adv-x="708" 
d="M354 760q-138 0 -222.5 94t-84.5 250q0 157 84 250.5t223 93.5t224.5 -93.5t85.5 -250.5q0 -156 -85.5 -250t-224.5 -94zM354 877q87 0 135 62.5t48 164.5q0 104 -48 165.5t-135 61.5q-86 0 -134 -62t-48 -165t48 -165t134 -62z" />
    <glyph glyph-name="p.ordn" horiz-adv-x="720" 
d="M385 1448q131 0 211 -94.5t80 -249.5q0 -154 -79.5 -249t-211.5 -95q-118 0 -182 71v-329h-125v928h123v-52q32 32 81 51t103 19zM375 877q78 0 126 62t48 165t-48 165t-126 62q-73 0 -122.5 -47.5t-49.5 -118.5v-118q0 -74 48.5 -122t123.5 -48z" />
    <glyph glyph-name="q.ordn" horiz-adv-x="720" 
d="M520 1430h125v-928h-127v327q-66 -69 -182 -69q-130 0 -209.5 95t-79.5 249q0 155 79.5 249.5t209.5 94.5q113 0 184 -68v50zM348 877q74 0 122 48.5t48 121.5v118q0 71 -48.5 119.5t-121.5 48.5q-79 0 -127.5 -63.5t-48.5 -165.5q0 -103 48 -165t128 -62z" />
    <glyph glyph-name="r.ordn" horiz-adv-x="485" 
d="M342 1448q66 0 133 -37l-53 -111q-53 31 -100 31q-54 0 -86.5 -39.5t-32.5 -107.5v-406h-125v652h117v-60q21 34 61 56t86 22z" />
    <glyph glyph-name="s.ordn" horiz-adv-x="665" 
d="M354 760q-128 0 -216 63t-105 168l114 29q13 -71 68 -110.5t139 -39.5q72 0 113 23.5t41 64.5q0 31 -24 49.5t-63 27.5t-85.5 16t-93 18.5t-85.5 30t-63 56.5t-24 93q0 86 70.5 142.5t176.5 56.5q101 0 185 -56.5t104 -146.5l-114 -28q-12 52 -62 87t-113 35
q-52 0 -88 -26.5t-36 -63.5q0 -33 32.5 -52t81 -25t105.5 -18.5t105.5 -28.5t81 -57.5t32.5 -104.5q0 -93 -75.5 -148t-201.5 -55z" />
    <glyph glyph-name="t.ordn" horiz-adv-x="518" 
d="M158 1602l127 36v-208h200v-117h-200v-359q0 -77 69 -77q54 0 123 26l33 -112q-92 -31 -164 -31q-85 0 -136.5 50t-51.5 132v371h-150v117h150v172z" />
    <glyph glyph-name="u.ordn" horiz-adv-x="710" 
d="M508 1430h127v-652h-123v68q-29 -40 -78 -63t-104 -23q-116 0 -186 76t-70 200v394h125v-373q0 -88 38 -134t111 -46q74 0 117 48.5t43 131.5v373z" />
    <glyph glyph-name="v.ordn" horiz-adv-x="684" 
d="M279 778l-263 652h142l184 -492l184 492h142l-262 -652h-127z" />
    <glyph glyph-name="w.ordn" horiz-adv-x="937" 
d="M799 1430h123l-166 -652h-146l-141 453l-141 -453h-146l-166 652h123l123 -488l154 488h108l150 -488z" />
    <glyph glyph-name="x.ordn" horiz-adv-x="649" 
d="M633 778h-146l-161 248l-164 -248h-146l230 336l-217 316h145l150 -228l151 228h146l-220 -316z" />
    <glyph glyph-name="y.ordn" horiz-adv-x="673" 
d="M518 1430h141l-331 -744q-25 -55 -61.5 -78.5t-100.5 -23.5q-44 0 -111 12l19 113q56 -9 82 -9q28 0 43.5 9.5t25.5 35.5l47 109l-256 576h142l178 -424z" />
    <glyph glyph-name="z.ordn" horiz-adv-x="684" 
d="M57 778v107l394 432h-383v113h548v-105l-395 -434h406v-113h-570z" />
    <glyph glyph-name="g.ss01" horiz-adv-x="1228" 
d="M911 1085h164v-1153q0 -181 -128 -302.5t-326 -121.5q-169 0 -287.5 86.5t-161.5 225.5l152 53q34 -102 108 -159.5t189 -57.5q130 0 210 81.5t80 203.5v161q-54 -60 -140 -96.5t-185 -36.5q-221 0 -357.5 159.5t-136.5 414.5q0 257 137 415t357 158q102 0 187.5 -36.5
t137.5 -98.5v104zM594 121q143 0 230 88t87 233v211q0 139 -87.5 226.5t-229.5 87.5q-155 0 -246.5 -114.5t-91.5 -309.5q0 -192 91.5 -307t246.5 -115z" />
    <glyph glyph-name="gbreve.ss01" horiz-adv-x="1228" 
d="M586 1198q-118 0 -192.5 69t-74.5 185h117q9 -54 47.5 -84.5t102.5 -30.5q128 0 151 115h115q0 -116 -74 -185t-192 -69zM911 1085h164v-1153q0 -181 -128 -302.5t-326 -121.5q-169 0 -287.5 86.5t-161.5 225.5l152 53q34 -102 108 -159.5t189 -57.5q130 0 210 81.5
t80 203.5v161q-54 -60 -140 -96.5t-185 -36.5q-221 0 -357.5 159.5t-136.5 414.5q0 257 137 415t357 158q102 0 187.5 -36.5t137.5 -98.5v104zM594 121q143 0 230 88t87 233v211q0 139 -87.5 226.5t-229.5 87.5q-155 0 -246.5 -114.5t-91.5 -309.5q0 -192 91.5 -307
t246.5 -115z" />
    <glyph glyph-name="gcircumflex.ss01" horiz-adv-x="1228" 
d="M586 1362l-146 -184l-125 94l140 178h262l139 -178l-125 -94zM911 1085h164v-1153q0 -181 -128 -302.5t-326 -121.5q-169 0 -287.5 86.5t-161.5 225.5l152 53q34 -102 108 -159.5t189 -57.5q130 0 210 81.5t80 203.5v161q-54 -60 -140 -96.5t-185 -36.5
q-221 0 -357.5 159.5t-136.5 414.5q0 257 137 415t357 158q102 0 187.5 -36.5t137.5 -98.5v104zM594 121q143 0 230 88t87 233v211q0 139 -87.5 226.5t-229.5 87.5q-155 0 -246.5 -114.5t-91.5 -309.5q0 -192 91.5 -307t246.5 -115z" />
    <glyph glyph-name="gcommaaccent.ss01" horiz-adv-x="1228" 
d="M694 1419v-200h-215v170q0 92 53 146t150 62v-96q-36 -7 -50 -25t-14 -57h76zM911 1085h164v-1153q0 -181 -128 -302.5t-326 -121.5q-169 0 -287.5 86.5t-161.5 225.5l152 53q34 -102 108 -159.5t189 -57.5q130 0 210 81.5t80 203.5v161q-54 -60 -140 -96.5t-185 -36.5
q-221 0 -357.5 159.5t-136.5 414.5q0 257 137 415t357 158q102 0 187.5 -36.5t137.5 -98.5v104zM594 121q143 0 230 88t87 233v211q0 139 -87.5 226.5t-229.5 87.5q-155 0 -246.5 -114.5t-91.5 -309.5q0 -192 91.5 -307t246.5 -115z" />
    <glyph glyph-name="gdotaccent.ss01" horiz-adv-x="1228" 
d="M694 1434v-215h-217v215h217zM911 1085h164v-1153q0 -181 -128 -302.5t-326 -121.5q-169 0 -287.5 86.5t-161.5 225.5l152 53q34 -102 108 -159.5t189 -57.5q130 0 210 81.5t80 203.5v161q-54 -60 -140 -96.5t-185 -36.5q-221 0 -357.5 159.5t-136.5 414.5q0 257 137 415
t357 158q102 0 187.5 -36.5t137.5 -98.5v104zM594 121q143 0 230 88t87 233v211q0 139 -87.5 226.5t-229.5 87.5q-155 0 -246.5 -114.5t-91.5 -309.5q0 -192 91.5 -307t246.5 -115z" />
    <glyph glyph-name="j.ss01" horiz-adv-x="880" 
d="M543 1239v219h217v-219h-217zM305 -492q-155 0 -254.5 82.5t-142.5 225.5l155 51q67 -209 242 -209q130 0 197 88.5t67 253.5v936h-520v149h684v-1093q0 -224 -113 -354t-315 -130z" />
    <glyph glyph-name="uni0237.ss01" horiz-adv-x="880" 
d="M305 -492q-155 0 -254.5 82.5t-142.5 225.5l155 51q67 -209 242 -209q130 0 197 88.5t67 253.5v936h-520v149h684v-1093q0 -224 -113 -354t-315 -130z" />
    <glyph glyph-name="jcircumflex.ss01" horiz-adv-x="880" 
d="M782 1419l140 -178l-125 -94l-146 184l-145 -184l-125 94l139 178h262zM49 936v149h684v-1093q0 -224 -113 -354t-315 -130q-155 0 -254.5 82.5t-142.5 225.5l155 51q67 -209 242 -209q130 0 197 88.5t67 253.5v936h-520z" />
    <glyph glyph-name="r.ss01" horiz-adv-x="929" 
d="M553 1116q152 0 244.5 -97.5t111.5 -277.5l-164 -22q-13 129 -64 188.5t-146 59.5q-103 0 -160.5 -76t-57.5 -211v-680h-163v1085h155v-102q31 59 98 96t146 37z" />
    <glyph glyph-name="racute.ss01" horiz-adv-x="929" 
d="M739 1475l-227 -256h-180l166 256h241zM553 1116q152 0 244.5 -97.5t111.5 -277.5l-164 -22q-13 129 -64 188.5t-146 59.5q-103 0 -160.5 -76t-57.5 -211v-680h-163v1085h155v-102q31 59 98 96t146 37z" />
    <glyph glyph-name="rcaron.ss01" horiz-adv-x="929" 
d="M565 1219h-262l-139 178l125 94l145 -184l146 184l125 -94zM553 1116q152 0 244.5 -97.5t111.5 -277.5l-164 -22q-13 129 -64 188.5t-146 59.5q-103 0 -160.5 -76t-57.5 -211v-680h-163v1085h155v-102q31 59 98 96t146 37z" />
    <glyph glyph-name="rcommaaccent.ss01" horiz-adv-x="929" 
d="M553 1116q152 0 244.5 -97.5t111.5 -277.5l-164 -22q-13 129 -64 188.5t-146 59.5q-103 0 -160.5 -76t-57.5 -211v-680h-163v1085h155v-102q31 59 98 96t146 37zM127 -303v201h215v-170q0 -92 -53 -146.5t-150 -62.5v96q36 7 50 25t14 57h-76z" />
    <glyph glyph-name="t.ss01" horiz-adv-x="845" 
d="M279 1434h163v-349h346v-149h-346v-674q0 -68 33 -104.5t96 -36.5q49 -1 95.5 9t115.5 36l47 -146q-141 -51 -264 -51q-130 0 -208 77.5t-78 205.5v684h-263v149h263v349z" />
    <glyph glyph-name="tbar.ss01" horiz-adv-x="845" 
d="M782 166l47 -146q-141 -51 -264 -51q-130 0 -208 77.5t-78 205.5v264h-263v137h263v283h-263v149h263v349h163v-349h346v-149h-346v-283h342v-137h-342v-254q0 -68 33 -104.5t96 -36.5q49 -1 95.5 9t115.5 36z" />
    <glyph glyph-name="tcaron.ss01" horiz-adv-x="845" 
d="M608 1182v96q36 7 50 25t14 57h-76v201h215v-170q0 -92 -53 -146.5t-150 -62.5zM279 1434h163v-349h346v-149h-346v-674q0 -68 33 -104.5t96 -36.5q49 -1 95.5 9t115.5 36l47 -146q-141 -51 -264 -51q-130 0 -208 77.5t-78 205.5v684h-263v149h263v349z" />
    <glyph glyph-name="uni0163.ss01" horiz-adv-x="845" 
d="M604 -123q88 0 146.5 -50t58.5 -126q0 -90 -65 -147.5t-173 -57.5q-87 0 -153.5 38.5t-100.5 105.5l111 63q26 -47 59 -66.5t84 -19.5q52 0 80.5 23t26.5 61q0 35 -29 56.5t-78 21.5q-53 0 -108 -35l-101 55l107 183q-89 26 -139.5 97.5t-50.5 172.5v684h-263v149h263
v349h163v-349h346v-149h-346v-674q0 -68 33 -104.5t96 -36.5q49 -1 95.5 9t115.5 36l47 -146q-130 -48 -241 -51l-60 -102q38 10 76 10z" />
    <glyph glyph-name="uni021B.ss01" horiz-adv-x="845" 
d="M279 1434h163v-349h346v-149h-346v-674q0 -68 33 -104.5t96 -36.5q49 -1 95.5 9t115.5 36l47 -146q-141 -51 -264 -51q-130 0 -208 77.5t-78 205.5v684h-263v149h263v349zM455 -512v96q36 7 49.5 25t13.5 57h-76v201h215v-170q0 -92 -52.5 -147t-149.5 -62z" />
    <glyph glyph-name="uni1E6D.ss01" horiz-adv-x="845" 
d="M279 1434h163v-349h346v-149h-346v-674q0 -68 33 -104.5t96 -36.5q49 -1 95.5 9t115.5 36l47 -146q-141 -51 -264 -51q-130 0 -208 77.5t-78 205.5v684h-263v149h263v349zM442 -348v215h217v-215h-217z" />
    <glyph glyph-name="a.ss02" horiz-adv-x="1228" 
d="M911 1085h164v-1085h-164v104q-54 -62 -140 -98.5t-185 -36.5q-221 0 -357.5 159.5t-136.5 414.5q0 257 137 415t357 158q102 0 187.5 -36.5t137.5 -98.5v104zM594 121q143 0 230 88t87 233v211q0 139 -87.5 226.5t-229.5 87.5q-155 0 -246.5 -114.5t-91.5 -309.5
q0 -192 91.5 -307t246.5 -115z" />
    <glyph glyph-name="aacute.ss02" horiz-adv-x="1228" 
d="M915 1475l-227 -256h-180l166 256h241zM911 1085h164v-1085h-164v104q-54 -62 -140 -98.5t-185 -36.5q-221 0 -357.5 159.5t-136.5 414.5q0 257 137 415t357 158q102 0 187.5 -36.5t137.5 -98.5v104zM594 121q143 0 230 88t87 233v211q0 139 -87.5 226.5t-229.5 87.5
q-155 0 -246.5 -114.5t-91.5 -309.5q0 -192 91.5 -307t246.5 -115z" />
    <glyph glyph-name="abreve.ss02" horiz-adv-x="1228" 
d="M610 1198q-118 0 -192 69t-74 185h117q9 -54 47 -84.5t102 -30.5q129 0 152 115h115q0 -116 -74.5 -185t-192.5 -69zM911 1085h164v-1085h-164v104q-54 -62 -140 -98.5t-185 -36.5q-221 0 -357.5 159.5t-136.5 414.5q0 257 137 415t357 158q102 0 187.5 -36.5
t137.5 -98.5v104zM594 121q143 0 230 88t87 233v211q0 139 -87.5 226.5t-229.5 87.5q-155 0 -246.5 -114.5t-91.5 -309.5q0 -192 91.5 -307t246.5 -115z" />
    <glyph glyph-name="uni01CE.ss02" horiz-adv-x="1228" 
d="M741 1219h-262l-139 178l125 94l145 -184l146 184l125 -94zM911 1085h164v-1085h-164v104q-54 -62 -140 -98.5t-185 -36.5q-221 0 -357.5 159.5t-136.5 414.5q0 257 137 415t357 158q102 0 187.5 -36.5t137.5 -98.5v104zM594 121q143 0 230 88t87 233v211
q0 139 -87.5 226.5t-229.5 87.5q-155 0 -246.5 -114.5t-91.5 -309.5q0 -192 91.5 -307t246.5 -115z" />
    <glyph glyph-name="acircumflex.ss02" horiz-adv-x="1228" 
d="M610 1362l-145 -184l-125 94l139 178h262l140 -178l-125 -94zM911 1085h164v-1085h-164v104q-54 -62 -140 -98.5t-185 -36.5q-221 0 -357.5 159.5t-136.5 414.5q0 257 137 415t357 158q102 0 187.5 -36.5t137.5 -98.5v104zM594 121q143 0 230 88t87 233v211
q0 139 -87.5 226.5t-229.5 87.5q-155 0 -246.5 -114.5t-91.5 -309.5q0 -192 91.5 -307t246.5 -115z" />
    <glyph glyph-name="uni1EAD.ss02" horiz-adv-x="1228" 
d="M610 1362l-145 -184l-125 94l139 178h262l140 -178l-125 -94zM911 1085h164v-1085h-164v104q-54 -62 -140 -98.5t-185 -36.5q-221 0 -357.5 159.5t-136.5 414.5q0 257 137 415t357 158q102 0 187.5 -36.5t137.5 -98.5v104zM594 121q143 0 230 88t87 233v211
q0 139 -87.5 226.5t-229.5 87.5q-155 0 -246.5 -114.5t-91.5 -309.5q0 -192 91.5 -307t246.5 -115zM522 -317v215h217v-215h-217z" />
    <glyph glyph-name="adieresis.ss02" horiz-adv-x="1228" 
d="M506 1427v-208h-209v208h209zM924 1427v-208h-209v208h209zM911 1085h164v-1085h-164v104q-54 -62 -140 -98.5t-185 -36.5q-221 0 -357.5 159.5t-136.5 414.5q0 257 137 415t357 158q102 0 187.5 -36.5t137.5 -98.5v104zM594 121q143 0 230 88t87 233v211
q0 139 -87.5 226.5t-229.5 87.5q-155 0 -246.5 -114.5t-91.5 -309.5q0 -192 91.5 -307t246.5 -115z" />
    <glyph glyph-name="uni01DF.ss02" horiz-adv-x="1228" 
d="M948 1636v-139h-676v139h676zM506 1219h-209v208h209v-208zM924 1219h-209v208h209v-208zM911 1085h164v-1085h-164v104q-54 -62 -140 -98.5t-185 -36.5q-221 0 -357.5 159.5t-136.5 414.5q0 257 137 415t357 158q102 0 187.5 -36.5t137.5 -98.5v104zM594 121
q143 0 230 88t87 233v211q0 139 -87.5 226.5t-229.5 87.5q-155 0 -246.5 -114.5t-91.5 -309.5q0 -192 91.5 -307t246.5 -115z" />
    <glyph glyph-name="uni1EA1.ss02" horiz-adv-x="1228" 
d="M911 1085h164v-1085h-164v104q-54 -62 -140 -98.5t-185 -36.5q-221 0 -357.5 159.5t-136.5 414.5q0 257 137 415t357 158q102 0 187.5 -36.5t137.5 -98.5v104zM594 121q143 0 230 88t87 233v211q0 139 -87.5 226.5t-229.5 87.5q-155 0 -246.5 -114.5t-91.5 -309.5
q0 -192 91.5 -307t246.5 -115zM502 -348v215h217v-215h-217z" />
    <glyph glyph-name="agrave.ss02" horiz-adv-x="1228" 
d="M700 1219h-180l-227 256h242zM911 1085h164v-1085h-164v104q-54 -62 -140 -98.5t-185 -36.5q-221 0 -357.5 159.5t-136.5 414.5q0 257 137 415t357 158q102 0 187.5 -36.5t137.5 -98.5v104zM594 121q143 0 230 88t87 233v211q0 139 -87.5 226.5t-229.5 87.5
q-155 0 -246.5 -114.5t-91.5 -309.5q0 -192 91.5 -307t246.5 -115z" />
    <glyph glyph-name="amacron.ss02" horiz-adv-x="1228" 
d="M948 1358v-139h-676v139h676zM911 1085h164v-1085h-164v104q-54 -62 -140 -98.5t-185 -36.5q-221 0 -357.5 159.5t-136.5 414.5q0 257 137 415t357 158q102 0 187.5 -36.5t137.5 -98.5v104zM594 121q143 0 230 88t87 233v211q0 139 -87.5 226.5t-229.5 87.5
q-155 0 -246.5 -114.5t-91.5 -309.5q0 -192 91.5 -307t246.5 -115z" />
    <glyph glyph-name="aogonek.ss02" horiz-adv-x="1228" 
d="M1124 -223l64 -127q-139 -74 -254 -74q-108 0 -173 48.5t-65 129.5q0 144 215 254v96q-54 -62 -140 -98.5t-185 -36.5q-221 0 -357.5 159.5t-136.5 414.5q0 257 137 415t357 158q102 0 187.5 -36.5t137.5 -98.5v104h164v-1085h-8q-122 -69 -172.5 -118.5t-50.5 -100.5
q0 -68 90 -68q82 0 190 64zM594 121q143 0 230 88t87 233v211q0 139 -87.5 226.5t-229.5 87.5q-155 0 -246.5 -114.5t-91.5 -309.5q0 -192 91.5 -307t246.5 -115z" />
    <glyph glyph-name="aring.ss02" horiz-adv-x="1228" 
d="M911 1085h164v-1085h-164v104q-54 -62 -140 -98.5t-185 -36.5q-221 0 -357.5 159.5t-136.5 414.5q0 194 79.5 334.5t219.5 199.5q-59 62 -59 152q0 96 68 157.5t175 61.5q106 0 174 -62t68 -157q0 -83 -53 -146q93 -40 147 -102v104zM575 1339q-51 0 -80.5 -30t-29.5 -80
t30 -81.5t80 -31.5q49 0 80 31.5t31 81.5q0 49 -30.5 79.5t-80.5 30.5zM594 121q143 0 230 88t87 233v211q0 139 -87.5 226.5t-229.5 87.5q-155 0 -246.5 -114.5t-91.5 -309.5q0 -192 91.5 -307t246.5 -115z" />
    <glyph glyph-name="aringacute.ss02" horiz-adv-x="1228" 
d="M911 1085h164v-1085h-164v104q-54 -62 -140 -98.5t-185 -36.5q-221 0 -357.5 159.5t-136.5 414.5q0 194 79.5 334.5t219.5 199.5q-59 62 -59 152q0 76 45 132.5t121 76.5l151 235h242l-215 -241q65 -25 103 -79t38 -124q0 -83 -53 -146q93 -40 147 -102v104zM575 1339
q-51 0 -80.5 -30t-29.5 -80t30 -81.5t80 -31.5q49 0 80 31.5t31 81.5q0 49 -30.5 79.5t-80.5 30.5zM594 121q143 0 230 88t87 233v211q0 139 -87.5 226.5t-229.5 87.5q-155 0 -246.5 -114.5t-91.5 -309.5q0 -192 91.5 -307t246.5 -115z" />
    <glyph glyph-name="atilde.ss02" horiz-adv-x="1228" 
d="M475 1288q-57 0 -72 -69h-120q6 102 56 158.5t134 56.5q56 0 149.5 -39t125.5 -39q56 0 71 67h119q-4 -101 -55 -158t-133 -57q-56 0 -150 40t-125 40zM911 1085h164v-1085h-164v104q-54 -62 -140 -98.5t-185 -36.5q-221 0 -357.5 159.5t-136.5 414.5q0 257 137 415
t357 158q102 0 187.5 -36.5t137.5 -98.5v104zM594 121q143 0 230 88t87 233v211q0 139 -87.5 226.5t-229.5 87.5q-155 0 -246.5 -114.5t-91.5 -309.5q0 -192 91.5 -307t246.5 -115z" />
    <glyph glyph-name="f.ss04" horiz-adv-x="774" 
d="M279 0v936h-263v149h263v121q0 122 74 196.5t198 74.5q134 0 285 -99l-74 -129q-68 42 -114 59t-93 17q-55 0 -84 -32.5t-29 -94.5v-113h283v-149h-283v-936h-163z" />
    <glyph glyph-name="g.ss04" horiz-adv-x="1122" 
d="M692 102q182 -26 271.5 -91.5t89.5 -194.5q0 -145 -132 -226.5t-364 -81.5q-226 0 -361 81t-135 221q0 75 46 140.5t129 104.5q-132 63 -132 185t127 192q-108 114 -108 275q0 178 127.5 293.5t324.5 115.5q126 0 226 -49q32 91 103.5 148.5t170.5 76.5l37 -145
q-79 -11 -133 -49t-76 -99q127 -114 127 -292q0 -176 -128.5 -293t-326.5 -117q-138 0 -247 61q-76 -35 -76 -98q0 -53 50 -81.5t159 -43.5zM575 973q-128 0 -210 -75t-82 -191q0 -115 81.5 -191t210.5 -76q130 0 212.5 75.5t82.5 191.5t-82.5 191t-212.5 75zM557 -348
q164 0 250 42.5t86 125.5q0 67 -52 101.5t-169 49.5l-262 37l-15 2q-79 -19 -126.5 -70.5t-47.5 -119.5q0 -81 89.5 -124.5t246.5 -43.5z" />
    <glyph glyph-name="gbreve.ss04" horiz-adv-x="1122" 
d="M535 1198q-118 0 -192.5 69t-74.5 185h117q9 -54 47.5 -84.5t102.5 -30.5q128 0 151 115h115q0 -116 -74 -185t-192 -69zM692 102q182 -26 271.5 -91.5t89.5 -194.5q0 -145 -132 -226.5t-364 -81.5q-226 0 -361 81t-135 221q0 75 46 140.5t129 104.5q-132 63 -132 185
t127 192q-108 114 -108 275q0 178 127.5 293.5t324.5 115.5q126 0 226 -49q32 91 103.5 148.5t170.5 76.5l37 -145q-79 -11 -133 -49t-76 -99q127 -114 127 -292q0 -176 -128.5 -293t-326.5 -117q-138 0 -247 61q-76 -35 -76 -98q0 -53 50 -81.5t159 -43.5zM575 973
q-128 0 -210 -75t-82 -191q0 -115 81.5 -191t210.5 -76q130 0 212.5 75.5t82.5 191.5t-82.5 191t-212.5 75zM557 -348q164 0 250 42.5t86 125.5q0 67 -52 101.5t-169 49.5l-262 37l-15 2q-79 -19 -126.5 -70.5t-47.5 -119.5q0 -81 89.5 -124.5t246.5 -43.5z" />
    <glyph glyph-name="gcircumflex.ss04" horiz-adv-x="1122" 
d="M535 1362l-146 -184l-125 94l139 178h263l139 -178l-125 -94zM692 102q182 -26 271.5 -91.5t89.5 -194.5q0 -145 -132 -226.5t-364 -81.5q-226 0 -361 81t-135 221q0 75 46 140.5t129 104.5q-132 63 -132 185t127 192q-108 114 -108 275q0 178 127.5 293.5t324.5 115.5
q126 0 226 -49q32 91 103.5 148.5t170.5 76.5l37 -145q-79 -11 -133 -49t-76 -99q127 -114 127 -292q0 -176 -128.5 -293t-326.5 -117q-138 0 -247 61q-76 -35 -76 -98q0 -53 50 -81.5t159 -43.5zM575 973q-128 0 -210 -75t-82 -191q0 -115 81.5 -191t210.5 -76
q130 0 212.5 75.5t82.5 191.5t-82.5 191t-212.5 75zM557 -348q164 0 250 42.5t86 125.5q0 67 -52 101.5t-169 49.5l-262 37l-15 2q-79 -19 -126.5 -70.5t-47.5 -119.5q0 -81 89.5 -124.5t246.5 -43.5z" />
    <glyph glyph-name="gcommaaccent.ss04" horiz-adv-x="1122" 
d="M643 1419v-200h-215v170q0 92 53 146t150 62v-96q-36 -7 -50 -25t-14 -57h76zM692 102q182 -26 271.5 -91.5t89.5 -194.5q0 -145 -132 -226.5t-364 -81.5q-226 0 -361 81t-135 221q0 75 46 140.5t129 104.5q-132 63 -132 185t127 192q-108 114 -108 275
q0 178 127.5 293.5t324.5 115.5q126 0 226 -49q32 91 103.5 148.5t170.5 76.5l37 -145q-79 -11 -133 -49t-76 -99q127 -114 127 -292q0 -176 -128.5 -293t-326.5 -117q-138 0 -247 61q-76 -35 -76 -98q0 -53 50 -81.5t159 -43.5zM575 973q-128 0 -210 -75t-82 -191
q0 -115 81.5 -191t210.5 -76q130 0 212.5 75.5t82.5 191.5t-82.5 191t-212.5 75zM557 -348q164 0 250 42.5t86 125.5q0 67 -52 101.5t-169 49.5l-262 37l-15 2q-79 -19 -126.5 -70.5t-47.5 -119.5q0 -81 89.5 -124.5t246.5 -43.5z" />
    <glyph glyph-name="gdotaccent.ss04" horiz-adv-x="1122" 
d="M643 1434v-215h-217v215h217zM692 102q182 -26 271.5 -91.5t89.5 -194.5q0 -145 -132 -226.5t-364 -81.5q-226 0 -361 81t-135 221q0 75 46 140.5t129 104.5q-132 63 -132 185t127 192q-108 114 -108 275q0 178 127.5 293.5t324.5 115.5q126 0 226 -49q32 91 103.5 148.5
t170.5 76.5l37 -145q-79 -11 -133 -49t-76 -99q127 -114 127 -292q0 -176 -128.5 -293t-326.5 -117q-138 0 -247 61q-76 -35 -76 -98q0 -53 50 -81.5t159 -43.5zM575 973q-128 0 -210 -75t-82 -191q0 -115 81.5 -191t210.5 -76q130 0 212.5 75.5t82.5 191.5t-82.5 191
t-212.5 75zM557 -348q164 0 250 42.5t86 125.5q0 67 -52 101.5t-169 49.5l-262 37l-15 2q-79 -19 -126.5 -70.5t-47.5 -119.5q0 -81 89.5 -124.5t246.5 -43.5z" />
    <glyph glyph-name="j.ss04" horiz-adv-x="776" 
d="M412 1458h217v-219h-217v219zM78 1085h545v-1077q0 -183 -100 -290t-269 -107q-88 0 -176 14l18 148q79 -13 146 -13q106 0 161.5 65t55.5 189v922h-381v149z" />
    <glyph glyph-name="uni0237.ss04" horiz-adv-x="776" 
d="M623 1085v-1077q0 -183 -100 -290t-269 -107q-88 0 -176 14l18 148q79 -13 146 -13q106 0 161.5 65t55.5 189v922h-381v149h545z" />
    <glyph glyph-name="jcircumflex.ss04" horiz-adv-x="776" 
d="M651 1419l140 -178l-125 -94l-146 184l-145 -184l-125 94l139 178h262zM78 1085h545v-1077q0 -183 -100 -290t-269 -107q-88 0 -176 14l18 148q79 -13 146 -13q106 0 161.5 65t55.5 189v922h-381v149z" />
    <glyph glyph-name="r.ss04" horiz-adv-x="743" 
d="M559 1116q66 0 123 -14l-33 -154q-62 19 -108 19q-102 0 -163 -78t-61 -209v-680h-163v1085h155v-104q33 61 101 98t149 37z" />
    <glyph glyph-name="racute.ss04" horiz-adv-x="743" 
d="M731 1475l-227 -256h-180l165 256h242zM309 981q33 61 101 98t149 37q66 0 123 -14l-33 -154q-62 19 -108 19q-102 0 -163 -78t-61 -209v-680h-163v1085h155v-104z" />
    <glyph glyph-name="rcaron.ss04" horiz-adv-x="743" 
d="M557 1219h-262l-139 178l125 94l145 -184l145 184l125 -94zM309 981q33 61 101 98t149 37q66 0 123 -14l-33 -154q-62 19 -108 19q-102 0 -163 -78t-61 -209v-680h-163v1085h155v-104z" />
    <glyph glyph-name="rcommaaccent.ss04" horiz-adv-x="743" 
d="M559 1116q66 0 123 -14l-33 -154q-62 19 -108 19q-102 0 -163 -78t-61 -209v-680h-163v1085h155v-104q33 61 101 98t149 37zM129 -303v201h215v-170q0 -92 -53 -146.5t-150 -62.5v96q36 7 50 25t14 57h-76z" />
    <glyph glyph-name="t.ss04" horiz-adv-x="784" 
d="M279 1384l163 50v-349h277v-149h-277v-674q0 -68 33 -104.5t96 -36.5q49 -1 95.5 9t115.5 36l47 -146q-141 -51 -264 -51q-130 0 -208 77.5t-78 205.5v684h-263v149h263v299z" />
    <glyph glyph-name="tbar.ss04" horiz-adv-x="845" 
d="M782 166l47 -146q-141 -51 -264 -51q-130 0 -208 77.5t-78 205.5v264h-263v137h263v283h-263v149h263v299l163 50v-349h277v-149h-277v-283h271v-137h-271v-254q0 -68 33 -104.5t96 -36.5q49 -1 95.5 9t115.5 36z" />
    <glyph glyph-name="tcaron.ss04" horiz-adv-x="784" 
d="M582 1217v96q36 7 49.5 25t13.5 57h-76v200h215v-170q0 -92 -52.5 -146t-149.5 -62zM279 1384l163 50v-349h277v-149h-277v-674q0 -68 33 -104.5t96 -36.5q49 -1 95.5 9t115.5 36l47 -146q-141 -51 -264 -51q-130 0 -208 77.5t-78 205.5v684h-263v149h263v299z" />
    <glyph glyph-name="uni0163.ss04" horiz-adv-x="784" 
d="M600 -123q88 0 146.5 -50t58.5 -126q0 -90 -65 -147.5t-173 -57.5q-87 0 -153.5 38.5t-100.5 105.5l111 63q26 -47 59 -66.5t84 -19.5q52 0 80.5 23t26.5 61q0 35 -29 56.5t-78 21.5q-53 0 -108 -35l-101 55l107 185q-87 26 -136.5 97t-49.5 171v684h-263v149h263v299
l163 50v-349h277v-149h-277v-674q0 -68 33 -104.5t96 -36.5q49 -1 95.5 9t115.5 36l47 -146q-133 -48 -245 -51l-60 -102q38 10 76 10z" />
    <glyph glyph-name="uni021B.ss04" horiz-adv-x="784" 
d="M279 1384l163 50v-349h277v-149h-277v-674q0 -68 33 -104.5t96 -36.5q49 -1 95.5 9t115.5 36l47 -146q-141 -51 -264 -51q-130 0 -208 77.5t-78 205.5v684h-263v149h263v299zM451 -512v96q36 7 49.5 25t13.5 57h-76v201h215v-170q0 -92 -52.5 -147t-149.5 -62z" />
    <glyph glyph-name="uni1E6D.ss04" horiz-adv-x="784" 
d="M279 1384l163 50v-349h277v-149h-277v-674q0 -68 33 -104.5t96 -36.5q49 -1 95.5 9t115.5 36l47 -146q-141 -51 -264 -51q-130 0 -208 77.5t-78 205.5v684h-263v149h263v299zM438 -348v215h217v-215h-217z" />
    <glyph glyph-name="zero.case" horiz-adv-x="1228" 
d="M614 -31q-250 0 -386 195t-136 553q0 359 135.5 553t386.5 194t387 -194t136 -553q0 -358 -136.5 -553t-386.5 -195zM614 131q171 0 260 150t89 436t-89.5 437t-259.5 151t-259 -151t-89 -437t89 -436t259 -150z" />
    <glyph glyph-name="one.case" horiz-adv-x="878" 
d="M469 0v1149q-135 -153 -391 -221l-47 155q169 50 272.5 128t190.5 223h149v-1434h-174z" />
    <glyph glyph-name="two.case" horiz-adv-x="1226" 
d="M1128 1024q0 -90 -26.5 -164.5t-71.5 -127t-103.5 -96.5t-124 -78t-131.5 -65.5t-128 -65t-111 -70t-82 -86t-41 -109.5h791v-162h-969v104q0 93 28 169t76 129t109.5 97t130 78.5t136.5 67t129.5 69t109.5 78.5t76 101t28 131q0 121 -90 201t-227 80
q-159 0 -254.5 -89.5t-95.5 -244.5q0 -98 43 -199l-162 -57q-55 129 -55 256q0 225 145 359t379 134q212 0 351.5 -125.5t139.5 -314.5z" />
    <glyph glyph-name="three.case" horiz-adv-x="1159" 
d="M578 891q216 0 342.5 -118t126.5 -329q0 -91 -26.5 -168.5t-73 -133.5t-109 -95.5t-134.5 -58.5t-149 -19q-223 0 -363.5 127t-160.5 357l172 22q29 -344 350 -344q49 0 94 11t86.5 35.5t72 60t48.5 88.5t18 118q0 152 -88 231t-262 79h-203v125l476 395h-682v160h907
v-174l-445 -369h3z" />
    <glyph glyph-name="four.case" horiz-adv-x="1249" 
d="M809 0v303h-717v176q236 212 365.5 436.5t183.5 518.5h174q-51 -299 -174.5 -535t-331.5 -434h500v426h174v-426h195v-162h-195v-303h-174z" />
    <glyph glyph-name="five.case" horiz-adv-x="1241" 
d="M662 936q215 0 351 -135t136 -346q0 -214 -143 -350t-373 -136q-197 0 -338 110t-182 300l168 43q31 -140 123 -215.5t229 -75.5q156 0 249 90t93 234q0 142 -90.5 233.5t-231.5 91.5q-220 0 -346 -192l-153 45l143 801h735v-160h-590l-84 -440q126 102 304 102z" />
    <glyph glyph-name="six.case" horiz-adv-x="1208" 
d="M1137 446q1 -204 -139 -340.5t-347 -136.5q-250 0 -394 158.5t-144 435.5q0 395 205.5 627.5t564.5 273.5l24 -157q-248 -30 -409 -172.5t-203 -384.5q58 79 153.5 124.5t213.5 45.5q208 0 341.5 -134t133.5 -340zM637 129q141 0 233.5 88.5t92.5 226.5q0 146 -86.5 231
t-235.5 85q-145 0 -237.5 -88t-92.5 -228q0 -135 92.5 -225t233.5 -90z" />
    <glyph glyph-name="seven.case" horiz-adv-x="1107" 
d="M51 1434h1006v-193q-267 -300 -398.5 -595t-156.5 -646h-178q27 364 168.5 694.5t384.5 579.5h-652v-234h-174v394z" />
    <glyph glyph-name="eight.case" horiz-adv-x="1181" 
d="M860 768q98 -46 158.5 -145t60.5 -215q0 -194 -136.5 -316.5t-350.5 -122.5q-215 0 -352.5 122.5t-137.5 316.5q0 116 61 215t159 145q-172 108 -172 307q0 172 123.5 280.5t318.5 108.5q194 0 318 -109t124 -280q0 -198 -174 -307zM592 1307q-121 0 -195.5 -65.5
t-74.5 -170.5q0 -107 73.5 -171t196.5 -64t196.5 64t73.5 171q0 104 -75 170t-195 66zM592 131q141 0 227 76.5t86 204.5q0 129 -84.5 205.5t-228.5 76.5q-145 0 -230.5 -76.5t-85.5 -205.5q0 -128 87.5 -204.5t228.5 -76.5z" />
    <glyph glyph-name="nine.case" horiz-adv-x="1208" 
d="M571 1464q236 0 380.5 -157.5t144.5 -415.5q0 -383 -182.5 -621t-546.5 -301l-27 160q236 39 383 181t184 360q-132 -154 -366 -154q-209 0 -339 130.5t-130 338.5q0 207 141.5 343t357.5 136zM567 674q150 0 242 87t92 228q0 135 -94.5 225.5t-235.5 90.5t-233 -89
t-92 -227q0 -150 84 -232.5t237 -82.5z" />
    <glyph glyph-name="one.ss01" horiz-adv-x="886" 
d="M487 0v1217l-426 -265v166l447 273h143v-1391h-164z" />
    <glyph glyph-name="two.ss01" horiz-adv-x="1191" 
d="M293 178v-28h772v-150h-934v172q0 104 44.5 184.5t115 131.5t156 93t171.5 81.5t156.5 84t115 112.5t44.5 157q0 105 -84 179.5t-211 74.5q-160 0 -259.5 -99t-105.5 -272l-161 8q6 232 152.5 373t373.5 141q196 0 326.5 -118t130.5 -287q0 -90 -27.5 -164t-74 -125
t-106.5 -93t-127 -74t-133.5 -61t-126.5 -60t-106.5 -66.5t-74 -85t-27.5 -109.5z" />
    <glyph glyph-name="three.ss01" horiz-adv-x="1138" 
d="M811 731q98 -40 156.5 -130t58.5 -204q0 -189 -129 -308.5t-330 -119.5q-214 0 -342 120t-153 347l161 25q17 -173 99.5 -255.5t234.5 -82.5q132 0 214.5 75.5t82.5 198.5q0 119 -71 187.5t-195 68.5h-141v148h141q110 0 174 64.5t64 174.5q0 99 -75 164.5t-190 65.5
q-128 0 -209.5 -75.5t-101.5 -217.5l-160 20q22 194 150 309t321 115q183 0 305.5 -108t122.5 -271q0 -107 -48.5 -187.5t-139.5 -123.5z" />
    <glyph glyph-name="four.ss01" horiz-adv-x="1255" 
d="M958 446h226v-151h-226v-295h-163v295h-703v168l688 928h178v-945zM262 446h533v717z" />
    <glyph glyph-name="six.ss01" horiz-adv-x="1193" 
d="M1122 432q1 -96 -35.5 -182t-100 -147.5t-153 -97.5t-190.5 -36q-255 0 -392.5 176.5t-137.5 499.5q0 351 147 563.5t391 212.5q174 0 296 -105.5t153 -287.5l-158 -29q-23 127 -99.5 199t-191.5 72q-162 0 -268.5 -158t-110.5 -410q58 87 160 140t219 53
q200 0 335.5 -133.5t135.5 -329.5zM639 121q139 0 230.5 89.5t91.5 223.5q0 135 -93 224.5t-233 89.5q-136 0 -230 -91t-94 -223t95 -222.5t233 -90.5z" />
    <glyph glyph-name="seven.ss01" horiz-adv-x="1095" 
d="M268 0l590 1241h-622v-227h-164v377h952v-170l-573 -1221h-183z" />
    <glyph glyph-name="nine.ss01" horiz-adv-x="1167" 
d="M537 1421q244 0 381 -180t137 -504q0 -372 -131 -570t-369 -198q-165 0 -282 101.5t-152 277.5l158 37q25 -129 96 -196.5t180 -67.5q158 0 245 145t93 422q-54 -91 -147.5 -140.5t-213.5 -49.5q-194 0 -327 131t-133 327q0 198 132 331.5t333 133.5zM543 645
q132 0 221.5 88.5t89.5 224.5q0 135 -91 224.5t-222 89.5t-218 -88t-87 -226q0 -140 87.5 -226.5t219.5 -86.5z" />
    <glyph glyph-name="one.ss01.case" horiz-adv-x="909" 
d="M500 0v1249l-439 -270v174l459 281h154v-1434h-174z" />
    <glyph glyph-name="two.ss01.case" horiz-adv-x="1226" 
d="M305 188v-26h793v-162h-967v180q0 85 28 154.5t76 118t109.5 88.5t130 72t136.5 63t129.5 66t109.5 75.5t76 98t28 128.5q0 108 -84.5 184.5t-212.5 76.5q-164 0 -264.5 -101t-107.5 -278l-172 8q6 238 157 384t387 146q202 0 336.5 -122.5t134.5 -297.5
q0 -92 -28 -167.5t-76 -128t-109.5 -95.5t-130 -76t-136.5 -63t-129.5 -61.5t-109.5 -67.5t-76 -86t-28 -111z" />
    <glyph glyph-name="three.ss01.case" horiz-adv-x="1171" 
d="M842 752q98 -40 157.5 -132t59.5 -210q0 -195 -133 -318t-342 -123q-224 0 -355.5 125t-156.5 357l172 26q17 -176 100 -261t240 -85q135 0 218 76.5t83 202.5q0 123 -71 191.5t-200 68.5h-145v157h145q114 0 178 64.5t64 177.5q0 103 -75.5 169.5t-192.5 66.5
q-133 0 -215 -78t-101 -221l-172 20q23 201 155.5 319.5t332.5 118.5q191 0 316.5 -112.5t125.5 -282.5q0 -109 -48.5 -191t-139.5 -126z" />
    <glyph glyph-name="four.ss01.case" horiz-adv-x="1292" 
d="M991 465h230v-162h-230v-303h-176v303h-723v176l709 955h190v-969zM274 465h541v725z" />
    <glyph glyph-name="six.ss01.case" horiz-adv-x="1228" 
d="M1157 446q2 -203 -139.5 -340t-355.5 -137q-265 0 -407 181.5t-142 515.5q0 362 152 580t405 218q182 0 307.5 -108.5t157.5 -296.5l-172 -31q-23 132 -100 204.5t-193 72.5q-164 0 -271.5 -158.5t-113.5 -411.5q61 86 163.5 137.5t221.5 51.5q206 0 346.5 -138
t140.5 -340zM659 131q141 0 232.5 90.5t91.5 227.5t-94 227t-236 90q-141 0 -235 -91t-94 -226t96.5 -226.5t238.5 -91.5z" />
    <glyph glyph-name="seven.ss01.case" horiz-adv-x="1128" 
d="M274 0l605 1274h-633v-234h-174v394h985v-181l-590 -1253h-193z" />
    <glyph glyph-name="nine.ss01.case" horiz-adv-x="1200" 
d="M553 1464q252 0 393 -183.5t141 -514.5q0 -388 -133.5 -592.5t-382.5 -204.5q-172 0 -292.5 104.5t-155.5 286.5l168 41q57 -270 280 -270q159 0 247 144.5t95 424.5q-57 -91 -151 -139.5t-215 -48.5q-201 0 -338 134.5t-137 338.5q0 206 135 342.5t346 136.5zM559 674
q135 0 224 88t89 227q0 137 -91 226.5t-226 89.5q-133 0 -220 -88.5t-87 -227.5q0 -146 87.5 -230.5t223.5 -84.5z" />
    <glyph glyph-name="zero.tf" 
d="M635 -31q-250 0 -386 195t-136 553q0 359 135.5 553t386.5 194t386.5 -194t135.5 -553q0 -358 -136 -553t-386 -195zM635 131q171 0 259.5 149.5t88.5 436.5q0 286 -89 437t-259 151t-259 -151t-89 -437t89 -436t259 -150z" />
    <glyph glyph-name="one.tf" 
d="M725 162h473v-162h-1126v162h479v987q-135 -153 -391 -221l-47 155q168 50 271.5 128t190.5 223h150v-1272z" />
    <glyph glyph-name="two.tf" 
d="M1143 1024q0 -90 -26.5 -164.5t-71.5 -127t-103.5 -96.5t-124 -78t-131.5 -65.5t-128 -65t-111 -70t-82 -86t-41 -109.5h790v-162h-969v104q0 93 28 169t76 129t109.5 97t130 78.5t137 67t130 69t109.5 78.5t76 101t28 131q0 120 -90.5 200.5t-227.5 80.5
q-159 0 -254.5 -89.5t-95.5 -244.5q0 -98 43 -199l-162 -57q-55 129 -55 256q0 225 145 359t379 134q212 0 352 -125.5t140 -314.5z" />
    <glyph glyph-name="three.tf" 
d="M674 891q216 0 342.5 -118t126.5 -329q0 -91 -26.5 -168.5t-73 -133.5t-109 -95.5t-134.5 -58.5t-149 -19q-223 0 -363.5 127t-160.5 357l172 22q29 -344 350 -344q62 0 117 18t101.5 54t74 98.5t27.5 142.5q0 152 -88.5 231t-262.5 79h-202v125l475 395h-682v160h907
v-174l-444 -369h2z" />
    <glyph glyph-name="four.tf" 
d="M809 0v303h-717v176q236 212 365.5 436.5t183.5 518.5h174q-51 -299 -174.5 -535t-331.5 -434h500v426h174v-426h195v-162h-195v-303h-174z" />
    <glyph glyph-name="five.tf" 
d="M666 936q215 0 351 -135t136 -346q0 -214 -143 -350t-373 -136q-197 0 -338 110t-182 300l168 43q31 -140 123 -215.5t229 -75.5q156 0 249 90t93 234q0 142 -90.5 233.5t-231.5 91.5q-220 0 -346 -192l-153 45l143 801h735v-160h-590l-84 -440q126 102 304 102z" />
    <glyph glyph-name="six.tf" 
d="M1147 446q1 -204 -138.5 -340.5t-346.5 -136.5q-250 0 -394.5 158.5t-144.5 435.5q0 395 205.5 627.5t564.5 273.5l25 -157q-248 -30 -409.5 -172.5t-203.5 -384.5q58 79 153.5 124.5t213.5 45.5q208 0 341.5 -134t133.5 -340zM647 129q141 0 233.5 88.5t92.5 226.5
q0 146 -86.5 231t-235.5 85q-145 0 -237 -87.5t-92 -228.5q0 -135 92 -225t233 -90z" />
    <glyph glyph-name="seven.tf" 
d="M131 1434h1006v-193q-267 -300 -398.5 -595t-156.5 -646h-179q27 364 168.5 694.5t384.5 579.5h-651v-234h-174v394z" />
    <glyph glyph-name="eight.tf" 
d="M903 768q98 -46 158.5 -145t60.5 -215q0 -194 -136.5 -316.5t-350.5 -122.5q-215 0 -352.5 122.5t-137.5 316.5q0 116 61 215t159 145q-172 108 -172 307q0 172 123.5 280.5t318.5 108.5q194 0 318 -109t124 -280q0 -198 -174 -307zM635 1307q-121 0 -195.5 -65.5
t-74.5 -170.5q0 -107 73.5 -171t196.5 -64t196.5 64t73.5 171q0 104 -75 170t-195 66zM635 131q141 0 227 76.5t86 204.5q0 129 -84.5 205.5t-228.5 76.5q-145 0 -230.5 -76.5t-85.5 -205.5q0 -128 87.5 -204.5t228.5 -76.5z" />
    <glyph glyph-name="nine.tf" 
d="M623 1464q236 0 380 -157.5t144 -415.5q0 -383 -182.5 -621t-546.5 -301l-27 160q236 39 383 181t184 360q-132 -154 -366 -154q-209 0 -339 130.5t-130 338.5q0 207 141.5 343t358.5 136zM618 674q150 0 242 87t92 228q0 135 -94 225.5t-235 90.5t-233.5 -89t-92.5 -227
q0 -150 84 -232.5t237 -82.5z" />
    <glyph glyph-name="zero.subs" horiz-adv-x="737" 
d="M371 -326q-156 0 -240 116.5t-84 332.5t84 332t240 116q154 0 237.5 -116.5t83.5 -331.5t-83.5 -332t-237.5 -117zM371 -195q180 0 180 318q0 317 -180 317q-183 0 -183 -317q0 -318 183 -318z" />
    <glyph glyph-name="one.subs" horiz-adv-x="538" 
d="M281 -307v659q-83 -80 -228 -121l-37 127q99 30 163 73t120 122h123v-860h-141z" />
    <glyph glyph-name="two.subs" horiz-adv-x="735" 
d="M686 297q0 -65 -24 -117t-62.5 -85.5t-86 -61t-97 -49.5t-92 -43.5t-74.5 -51t-41 -65.5h455v-131h-592v80q0 71 26 126t68 88.5t92 60.5t100.5 50.5t92.5 48.5t68 63.5t26 88.5q0 62 -47.5 101.5t-120.5 39.5q-80 0 -129 -46.5t-49 -125.5q0 -55 22 -110l-133 -43
q-31 82 -31 153q0 135 89.5 219t230.5 84q134 0 221.5 -77t87.5 -197z" />
    <glyph glyph-name="three.subs" horiz-adv-x="700" 
d="M387 223q117 -3 187.5 -71.5t70.5 -186.5q0 -132 -88 -211.5t-219 -79.5q-136 0 -223 79.5t-99 217.5l140 19q15 -185 182 -185q70 0 118 42t48 118q0 158 -178 158h-133v94l264 205h-387v131h557l2 -141z" />
    <glyph glyph-name="four.subs" horiz-adv-x="753" 
d="M608 -6h111v-131h-111v-170h-141v170h-420v135q136 133 208 261.5t101 293.5h146q-55 -342 -295 -559h260v225h141v-225z" />
    <glyph glyph-name="five.subs" horiz-adv-x="743" 
d="M401 260q128 0 212.5 -81t84.5 -202q0 -135 -90 -219t-231 -84q-120 0 -207 67t-113 179l136 39q17 -74 64.5 -114t119.5 -40q82 0 131 46.5t49 125.5q0 72 -48.5 116t-125.5 44q-102 0 -178 -92l-125 31l84 477h461v-131h-342l-39 -209q66 47 157 47z" />
    <glyph glyph-name="six.subs" horiz-adv-x="724" 
d="M403 246q124 0 205.5 -80.5t81.5 -202.5q0 -123 -86 -206t-211 -83q-158 0 -247 97.5t-89 279.5q0 224 127 360t348 160l19 -129q-140 -18 -230 -86.5t-116 -187.5q72 78 198 78zM381 -195q73 0 120.5 44t47.5 112q0 72 -45 115t-121 43q-73 0 -120.5 -44t-47.5 -114
q0 -66 48 -111t118 -45z" />
    <glyph glyph-name="seven.subs" horiz-adv-x="673" 
d="M27 553h622v-160q-160 -178 -233 -340.5t-82 -359.5h-152q11 200 95 398t227 331h-336v-131h-141v262z" />
    <glyph glyph-name="eight.subs" horiz-adv-x="708" 
d="M528 154q57 -29 93 -88.5t36 -126.5q0 -115 -85.5 -190t-217.5 -75q-131 0 -216 75t-85 190q0 67 35 125.5t94 89.5q-104 61 -104 180q0 103 78 170t198 67t199.5 -67t79.5 -170q0 -117 -105 -180zM354 446q-62 0 -99.5 -32t-37.5 -86q0 -56 37 -88.5t100 -32.5t100.5 33
t37.5 88q0 54 -38 86t-100 32zM354 -195q73 0 117.5 39.5t44.5 102.5q0 66 -43.5 104.5t-118.5 38.5q-73 0 -116 -38.5t-43 -104.5q0 -64 43.5 -103t115.5 -39z" />
    <glyph glyph-name="nine.subs" horiz-adv-x="724" 
d="M344 571q146 0 236 -98t90 -256q0 -227 -112 -366t-341 -177l-20 131q134 23 217 93.5t106 179.5q-71 -74 -203 -74q-125 0 -202.5 77.5t-77.5 201.5q0 125 87 206.5t220 81.5zM344 127q75 0 121.5 43.5t46.5 112.5q0 67 -48 112t-120 45q-73 0 -119.5 -43.5
t-46.5 -113.5q0 -73 42.5 -114.5t123.5 -41.5z" />
    <glyph glyph-name="zero.dnom" horiz-adv-x="737" 
d="M371 -18q-156 0 -240 116t-84 332t84 332.5t240 116.5q154 0 237.5 -117t83.5 -332t-83.5 -331.5t-237.5 -116.5zM371 113q180 0 180 317q0 318 -180 318q-183 0 -183 -318q0 -317 183 -317z" />
    <glyph glyph-name="one.dnom" horiz-adv-x="538" 
d="M281 0v659q-81 -78 -228 -120l-37 127q100 30 163.5 73t119.5 121h123v-860h-141z" />
    <glyph glyph-name="two.dnom" horiz-adv-x="735" 
d="M686 604q0 -65 -24 -117t-62.5 -85.5t-86 -61t-97 -49.5t-92 -43.5t-74.5 -51t-41 -65.5h455v-131h-592v80q0 71 26 126t68 88.5t92 60.5t100.5 50.5t92.5 48.5t68 63.5t26 88.5q0 62 -47.5 102t-120.5 40q-80 0 -129 -47t-49 -126q0 -55 22 -110l-133 -43
q-31 82 -31 153q0 136 90 220t230 84q134 0 221.5 -77.5t87.5 -197.5z" />
    <glyph glyph-name="three.dnom" horiz-adv-x="700" 
d="M387 530q117 -3 187.5 -71.5t70.5 -186.5q0 -132 -88 -211t-219 -79q-136 0 -223 79.5t-99 217.5l140 18q15 -184 182 -184q70 0 118 41.5t48 117.5q0 158 -178 158h-133v94l264 205h-387v131h557l2 -141z" />
    <glyph glyph-name="four.dnom" horiz-adv-x="753" 
d="M608 301h111v-131h-111v-170h-141v170h-420v135q136 133 208 261.5t101 293.5h146q-55 -342 -295 -559h260v225h141v-225z" />
    <glyph glyph-name="five.dnom" horiz-adv-x="743" 
d="M401 567q128 0 212.5 -80.5t84.5 -201.5q0 -135 -90 -219t-231 -84q-120 0 -207 66.5t-113 178.5l136 39q17 -74 64.5 -113.5t119.5 -39.5q82 0 131 46.5t49 125.5q0 72 -48.5 115.5t-125.5 43.5q-102 0 -178 -92l-125 31l84 477h461v-131h-342l-39 -209q66 47 157 47z
" />
    <glyph glyph-name="six.dnom" horiz-adv-x="724" 
d="M403 553q124 0 205.5 -80.5t81.5 -202.5t-86 -205t-211 -83q-158 0 -247 97t-89 279q0 225 127 361t348 160l19 -129q-140 -18 -230 -87t-116 -188q72 78 198 78zM381 113q73 0 120.5 43.5t47.5 111.5q0 72 -45 115t-121 43q-73 0 -120.5 -44t-47.5 -114
q0 -66 47.5 -110.5t118.5 -44.5z" />
    <glyph glyph-name="seven.dnom" horiz-adv-x="673" 
d="M27 860h622v-160q-160 -178 -233 -340.5t-82 -359.5h-152q11 200 95 398t227 331h-336v-131h-141v262z" />
    <glyph glyph-name="eight.dnom" horiz-adv-x="708" 
d="M528 461q57 -29 93 -88.5t36 -126.5q0 -115 -85.5 -189.5t-217.5 -74.5q-131 0 -216 74.5t-85 189.5q0 67 35 125.5t94 89.5q-104 61 -104 180q0 103 78 170.5t198 67.5t199.5 -67.5t79.5 -170.5q0 -117 -105 -180zM354 754q-62 0 -99.5 -32.5t-37.5 -86.5
q0 -56 37 -88.5t100 -32.5t100.5 33t37.5 88q0 54 -38 86.5t-100 32.5zM354 113q73 0 117.5 39t44.5 102q0 66 -43.5 104.5t-118.5 38.5q-73 0 -116 -38.5t-43 -104.5q0 -64 43.5 -102.5t115.5 -38.5z" />
    <glyph glyph-name="nine.dnom" horiz-adv-x="724" 
d="M344 879q146 0 236 -98.5t90 -256.5q0 -227 -112 -365.5t-341 -176.5l-20 131q135 23 217.5 93t105.5 179q-71 -74 -203 -74q-125 0 -202.5 77.5t-77.5 201.5q0 125 87 207t220 82zM344 434q75 0 121.5 43.5t46.5 112.5q0 68 -48 113t-120 45t-119 -44t-47 -114
q0 -73 42.5 -114.5t123.5 -41.5z" />
    <glyph glyph-name="zero.numr" horiz-adv-x="737" 
d="M371 555q-156 0 -240 116.5t-84 332.5t84 332t240 116q154 0 237.5 -116.5t83.5 -331.5t-83.5 -332t-237.5 -117zM371 686q180 0 180 318q0 317 -180 317q-183 0 -183 -317q0 -318 183 -318z" />
    <glyph glyph-name="one.numr" horiz-adv-x="538" 
d="M281 573v660q-83 -80 -228 -121l-37 127q99 30 163 73t120 122h123v-861h-141z" />
    <glyph glyph-name="two.numr" horiz-adv-x="735" 
d="M686 1178q0 -65 -24 -117t-62.5 -85.5t-86 -61t-97 -49.5t-92 -43.5t-74.5 -51t-41 -65.5h455v-132h-592v80q0 71 26 126t68 89t92 61t100.5 50t92.5 48.5t68 64t26 88.5q0 62 -47.5 101.5t-120.5 39.5q-80 0 -129 -46.5t-49 -125.5q0 -56 22 -111l-133 -43
q-31 82 -31 154q0 135 89.5 219t230.5 84q134 0 221.5 -77t87.5 -197z" />
    <glyph glyph-name="three.numr" horiz-adv-x="700" 
d="M387 1104q117 -3 187.5 -71.5t70.5 -186.5q0 -132 -88 -211.5t-219 -79.5q-136 0 -223 79.5t-99 217.5l140 18q15 -184 182 -184q70 0 118 42t48 118q0 158 -178 158h-133v94l264 205h-387v131h557l2 -142z" />
    <glyph glyph-name="four.numr" horiz-adv-x="753" 
d="M608 874h111v-131h-111v-170h-141v170h-420v136q136 133 208 261.5t101 293.5h146q-55 -343 -295 -560h260v226h141v-226z" />
    <glyph glyph-name="five.numr" horiz-adv-x="743" 
d="M401 1141q128 0 212.5 -81t84.5 -202q0 -135 -90 -219t-231 -84q-120 0 -207 67t-113 179l136 39q17 -74 64.5 -114t119.5 -40q82 0 131 46.5t49 125.5q0 72 -48.5 116t-125.5 44q-102 0 -178 -92l-125 30l84 478h461v-131h-342l-39 -209q66 47 157 47z" />
    <glyph glyph-name="six.numr" horiz-adv-x="724" 
d="M403 1126q124 0 205.5 -80t81.5 -202q0 -123 -86 -206t-211 -83q-158 0 -247 97.5t-89 279.5q0 224 127 360t348 160l19 -129q-140 -18 -230 -86.5t-116 -187.5q71 77 198 77zM381 686q73 0 120.5 44t47.5 112q0 72 -45 114.5t-121 42.5q-73 0 -120.5 -43.5t-47.5 -113.5
q0 -66 48 -111t118 -45z" />
    <glyph glyph-name="seven.numr" horiz-adv-x="673" 
d="M27 1434h622v-160q-160 -178 -233 -341t-82 -360h-152q11 200 95 398.5t227 331.5h-336v-132h-141v263z" />
    <glyph glyph-name="eight.numr" horiz-adv-x="708" 
d="M528 1034q57 -29 93 -88.5t36 -126.5q0 -115 -85.5 -189.5t-217.5 -74.5q-131 0 -216 74.5t-85 189.5q0 67 35 125.5t94 89.5q-104 61 -104 180q0 103 78 170.5t198 67.5t199.5 -67.5t79.5 -170.5q0 -117 -105 -180zM354 1327q-62 0 -99.5 -32.5t-37.5 -86.5
q0 -56 37 -88.5t100 -32.5t100.5 33t37.5 88q0 54 -38 86.5t-100 32.5zM354 686q73 0 117.5 39t44.5 102q0 66 -43.5 105t-118.5 39q-73 0 -116 -39t-43 -105q0 -64 43.5 -102.5t115.5 -38.5z" />
    <glyph glyph-name="nine.numr" horiz-adv-x="724" 
d="M344 1452q146 0 236 -98t90 -256q0 -227 -112 -366t-341 -177l-20 131q135 23 217.5 93t105.5 179q-70 -73 -203 -73q-125 0 -202.5 77.5t-77.5 200.5q0 125 87 207t220 82zM344 1008q75 0 121.5 43t46.5 112q0 68 -48 113t-120 45t-119 -44t-47 -114q0 -73 42.5 -114
t123.5 -41z" />
    <glyph glyph-name="zero.sups" horiz-adv-x="737" 
d="M371 760q-156 0 -240 116t-84 332t84 332.5t240 116.5q154 0 237.5 -117t83.5 -332t-83.5 -331.5t-237.5 -116.5zM371 891q180 0 180 317q0 318 -180 318q-183 0 -183 -318q0 -317 183 -317z" />
    <glyph glyph-name="one.sups" horiz-adv-x="538" 
d="M281 778v660q-83 -80 -228 -121l-37 127q100 30 163.5 73t119.5 121h123v-860h-141z" />
    <glyph glyph-name="two.sups" horiz-adv-x="735" 
d="M686 1382q0 -65 -24 -117t-62.5 -85.5t-86 -61t-97 -49.5t-92 -43.5t-74.5 -51t-41 -65.5h455v-131h-592v80q0 71 26 126t68 88.5t92 60.5t100.5 50.5t92.5 48.5t68 63.5t26 88.5q0 62 -47.5 102t-120.5 40q-80 0 -129 -46.5t-49 -125.5q0 -56 22 -111l-133 -43
q-31 82 -31 154q0 135 89.5 219t230.5 84q134 0 221.5 -77.5t87.5 -197.5z" />
    <glyph glyph-name="three.sups" horiz-adv-x="700" 
d="M387 1309q117 -3 187.5 -71.5t70.5 -186.5q0 -132 -88 -211.5t-219 -79.5q-136 0 -223 79.5t-99 217.5l140 18q15 -184 182 -184q70 0 118 42t48 118q0 157 -178 157h-133v95l264 204h-387v131h557l2 -141z" />
    <glyph glyph-name="four.sups" horiz-adv-x="753" 
d="M608 1079h111v-131h-111v-170h-141v170h-420v135q136 133 208 261.5t101 293.5h146q-55 -342 -295 -559h260v226h141v-226z" />
    <glyph glyph-name="five.sups" horiz-adv-x="743" 
d="M401 1346q128 0 212.5 -81t84.5 -202q0 -135 -90 -219t-231 -84q-120 0 -207 67t-113 179l136 38q17 -74 64.5 -113.5t119.5 -39.5q82 0 131 46.5t49 125.5q0 72 -48.5 116t-125.5 44q-101 0 -178 -93l-125 31l84 477h461v-131h-342l-39 -209q68 48 157 48z" />
    <glyph glyph-name="six.sups" horiz-adv-x="724" 
d="M403 1331q124 0 205.5 -80t81.5 -202q0 -123 -86 -206t-211 -83q-158 0 -247 97.5t-89 279.5q0 224 127 360t348 160l19 -129q-140 -18 -230 -87t-116 -188q72 78 198 78zM381 891q73 0 120.5 44t47.5 112q0 72 -45 114.5t-121 42.5q-73 0 -120.5 -43.5t-47.5 -113.5
q0 -66 48 -111t118 -45z" />
    <glyph glyph-name="seven.sups" horiz-adv-x="673" 
d="M27 1638h622v-159q-160 -178 -233 -341t-82 -360h-152q11 200 95 398t227 331h-336v-131h-141v262z" />
    <glyph glyph-name="eight.sups" horiz-adv-x="708" 
d="M528 1239q57 -29 93 -88.5t36 -126.5q0 -115 -85.5 -189.5t-217.5 -74.5q-131 0 -216 74.5t-85 189.5q0 67 35 125.5t94 89.5q-104 61 -104 180q0 103 78 170.5t198 67.5t199.5 -67.5t79.5 -170.5q0 -117 -105 -180zM354 1532q-62 0 -99.5 -32.5t-37.5 -86.5
q0 -56 37 -88.5t100 -32.5t100.5 33t37.5 88q0 54 -38 86.5t-100 32.5zM354 891q73 0 117.5 39t44.5 102q0 66 -43.5 105t-118.5 39q-73 0 -116 -39t-43 -105q0 -64 43.5 -102.5t115.5 -38.5z" />
    <glyph glyph-name="nine.sups" horiz-adv-x="724" 
d="M344 1657q146 0 236 -98t90 -256q0 -227 -112 -366t-341 -177l-20 131q135 23 217.5 93t105.5 179q-70 -73 -203 -73q-125 0 -202.5 77t-77.5 201q0 125 87 207t220 82zM344 1212q75 0 121.5 43.5t46.5 112.5q0 68 -48 113t-120 45t-119 -44t-47 -114q0 -73 42.5 -114.5
t123.5 -41.5z" />
    <glyph glyph-name="question.ss01" horiz-adv-x="1249" 
d="M528 393v119q0 67 24 122.5t62.5 93t85 70t92.5 61.5t84.5 59.5t62.5 71.5t24 91q0 98 -89.5 161t-218.5 63q-155 0 -262.5 -92.5t-128.5 -272.5l-172 23q27 238 183 369.5t380 131.5q206 0 344 -108.5t138 -274.5q0 -75 -24 -136.5t-62.5 -102t-85 -74t-93.5 -61
t-85.5 -55t-62.5 -63.5t-24 -79v-117h-172zM492 0v227h231v-227h-231z" />
    <glyph glyph-name="questiondown.ss01" 
d="M778 1085v-227h-231v227h231zM741 692v-119q0 -67 -24 -122.5t-62 -93t-84.5 -70t-93 -61.5t-84.5 -59.5t-62 -71.5t-24 -91q0 -98 89 -160.5t218 -62.5q155 0 263 92.5t129 271.5l172 -22q-27 -238 -183.5 -370t-380.5 -132q-205 0 -343 108.5t-138 274.5q0 75 24 136.5
t62.5 102t85 74t93 61t85 55t62.5 63.5t24 79v117h172z" />
    </font>
</defs>
</svg>
